<?xml version="1.0" standalone="no"?>
<!DOCTYPE svg PUBLIC "-//W3C//DTD SVG 1.1//EN" "http://www.w3.org/Graphics/SVG/1.1/DTD/svg11.dtd" >
<svg xmlns="http://www.w3.org/2000/svg">
<metadata>Generated by IcoMoon</metadata>
<defs>
<font id="icomoon" horiz-adv-x="1024">
<font-face units-per-em="1024" ascent="960" descent="-64" />
<missing-glyph horiz-adv-x="1024" />
<glyph unicode="&#x20;" horiz-adv-x="512" d="" />
<glyph unicode="&#xe900;" glyph-name="burger" d="M51.193 153.353v73.691h921.614v-73.691h-921.614zM51.193 411.171v73.641h921.614v-73.641h-921.614zM51.193 742.647h921.614v-73.677h-921.614v73.677z" />
<glyph unicode="&#xe901;" glyph-name="magnifier" d="M903.649-12.807l-285.763 278.99c-54.458-34.377-142.52-66.647-211.606-66.647-194.988 0-352.996 158.806-352.996 354.701 0 195.892 158.007 354.571 352.996 354.571 194.967 0 353.017-158.679 353.017-354.571 0-69.421-32.148-145.927-66.354-200.599l277.776-291.095-67.070-75.35zM406.28 278.371c151.349 0 274.561 123.804 274.561 275.862 0 152.061-123.212 275.778-274.561 275.778s-274.561-123.717-274.561-275.778c0-152.057 123.212-275.862 274.561-275.862z" />
<glyph unicode="&#xe902;" glyph-name="poi" d="M511.993 832.045c122.168 0 229.379-100.561 229.379-215.164 0-118.757-95.33-273.907-229.379-486.21-134.035 212.303-229.343 367.457-229.343 486.214 0 114.599 107.19 215.161 229.343 215.161zM511.993 908.807c-160.442 0-305.788-130.661-305.788-291.926 0-161.186 132.601-353.668 305.788-629.692 173.223 276.024 305.806 468.505 305.806 629.695 0 161.262-145.288 291.923-305.806 291.923z" />
<glyph unicode="&#xe903;" glyph-name="triangleUp" d="M51.193 217.595l460.811 460.811 460.804-460.753-6.206-0.058h-915.408z" />
<glyph unicode="&#xe904;" glyph-name="triangleRight" d="M281.595 908.807l460.811-460.814-460.753-460.8-0.058 6.206v915.408z" />
<glyph unicode="&#xe905;" glyph-name="triangleDown" d="M972.807 678.405l-460.811-460.811-460.804 460.753 6.206 0.058h915.408z" />
<glyph unicode="&#xe906;" glyph-name="triangleLeft" d="M742.405-12.807l-460.811 460.811 460.753 460.804 0.058-6.206v-915.408z" />
<glyph unicode="&#xe907;" glyph-name="phone" d="M320.021 908.807c-42.429 0-76.791-34.409-76.791-76.82v-717.215c-0.047-84.959 134.49-127.579 268.962-127.579 134.277 0 268.579 42.479 268.579 127.579v717.215c0 42.407-34.362 76.82-76.795 76.82h-383.955zM511.996 64.027c-21.191 0-38.394 17.156-38.394 38.372s17.203 38.423 38.394 38.423c21.216 0 38.397-17.206 38.397-38.423s-17.177-38.372-38.397-38.372zM703.976 217.613h-383.955v537.562h383.955v-537.562z" />
<glyph unicode="&#xe908;" glyph-name="mail" d="M885.855 205.301h-734.83v478.398l368.267-260.649 429.076 340.004h-850.687v-612.376h788.171v-2.025h53.383v523.211l-53.383-36.892v-429.734zM792.31 708.478l-274.744-217.777-307.706 217.777h582.45z" />
<glyph unicode="&#xe909;" glyph-name="facebook" d="M1005.751 448.183c-0.037-271.393-221.813-493.641-492.844-493.897-271.498-0.252-493.967 221.162-494.62 492.262-0.653 272.298 221.634 495.021 494.148 495.166 270.848 0.145 493.352-222.433 493.316-493.531zM724.528 834.581c-61.261 3.702-121.541 13.573-181.46-5.262-53.786-16.876-90.693-52.043-106.518-105.718-8.13-27.654-10.631-57.341-12.482-86.338-2.070-32.082-0.472-64.418-0.472-99.15h-124.119v-147.562h125.279v-375.186c44.35 0 85.467 1.273 126.442-0.541 21.99-0.98 26.057 7.183 25.874 27.216-0.907 106.843-0.435 213.76-0.435 320.64 0 9.11 0 18.216 0 29.14h125.462c6.352 49.104 12.522 96.574 19.090 147.419h-144.552c0 22.608 0 42.244 0 61.877 0.037 92.798 7.768 100.637 99.551 100.637 15.605 0 31.247 0 48.34 0v132.828z" />
<glyph unicode="&#xe90a;" glyph-name="twitter" d="M972.807 733.836c-33.925-15.042-70.368-25.168-108.599-29.756 39.066 23.366 69.067 60.444 83.12 104.633-36.501-21.686-76.975-37.433-120.076-45.919-34.467 36.739-83.611 59.715-138.005 59.715-122.052 0-211.754-113.877-184.22-232.143-157.064 7.879-296.395 83.163-389.67 197.568-49.52-85.017-25.692-196.173 58.483-252.478-30.945 0.986-60.134 9.476-85.584 23.651-2.059-87.614 60.701-169.506 151.649-187.778-26.613-7.232-55.773-8.912-85.421-3.226 24.045-75.136 93.846-129.797 176.641-131.314-79.468-62.33-179.617-90.164-279.933-78.352 83.691-53.664 183.111-84.937 289.842-84.937 351.056 0 549.407 296.5 537.414 562.459 36.934 26.693 68.992 59.968 94.359 97.877z" />
<glyph unicode="&#xe90b;" glyph-name="youtube" d="M906.658 638.969c-11.781 46.593-41.573 75.724-88.017 85.33-16.848 3.5-34.322 4.729-51.603 5.447-86.796 3.532-173.661 6.562-260.5 9.784-100.953-2.353-201.78-2.41-302.252-13.824-48.349-5.477-85.948-37.734-97.344-86.044-5.19-21.941-9.842-44.453-10.635-66.896-2.49-70.156-4.398-140.413-3.733-210.592 0.332-35.878 5.071-71.946 10.635-107.481 9.255-59.179 46.591-96.639 100.137-102.493 30.677-3.345 61.478-6.562 92.257-7.31 89.146-2.036 178.339-4.683 267.484-3.569 80.451 1.026 160.876 5.948 241.24 10.496 52.508 3.014 91.359 38.132 103.049 90.806 3.731 16.818 7.592 33.927 8.258 51.035 2.522 67.083 4.548 134.188 5.318 201.329 0.577 48.39-2.378 96.858-14.31 143.951zM393.27 295.446v303.88c95.431-50.812 189.398-100.879 286.161-152.41-96.254-50.967-190.28-100.719-286.161-151.469z" />
<glyph unicode="&#xe90c;" glyph-name="instagram" d="M512.055-45.714c-272.579-0.073-493.697 221.001-493.769 493.641-0.036 272.787 221.191 493.86 494.131 493.787 272.289-0.073 493.261-221.218 493.297-493.678 0.073-272.607-220.972-493.678-493.659-493.751zM511.583 150.334c28.851 0 57.739-0.289 86.59 0.073 26.562 0.399 53.237 0.508 79.331 6.349 67.174 14.939 109.162 55.739 125.129 122.865 6.532 27.56 6.751 55.739 6.93 83.807 0.362 56.828 0.325 113.657 0 170.485-0.179 27.015-0.435 54.107-6.312 80.689-14.047 63.609-51.789 105.278-114.933 123.12-25.549 7.253-51.858 8.486-78.098 8.667-65.902 0.435-131.844 0.399-197.782 0-22.755-0.109-45.583-1.124-67.937-6.201-61.984-14.035-103.21-50.735-121.537-112.132-7.73-25.893-9.145-52.656-9.327-79.383-0.436-66.692-0.399-133.383 0-200.075 0.109-22.451 1.125-44.972 6.17-67.021 15.242-66.472 55.778-108.142 122.299-124.061 27.254-6.528 55.126-6.674 82.887-7.073 28.851-0.435 57.739-0.11 86.59-0.11zM265.497 448.399c0.871 41.633 1.524 83.229 2.722 124.826 0.545 18.75 3.665 37.209 11.141 54.58 14.081 32.566 39.23 52.186 73.488 59.185 17.021 3.482 34.586 5.113 51.968 5.512 43.875 1.052 87.786 1.269 131.697 1.16 33.243-0.072 66.52-0.834 99.763-1.886 22.356-0.726 44.2-4.714 63.982-15.703 27.432-15.231 43.184-39.203 50.114-69.411 4.067-17.733 5.226-35.829 5.299-53.855 0.293-69.592 0.293-139.147 0-208.742-0.106-19.547-1.232-39.164-6.422-58.24-11.867-43.41-40.572-68.795-84.268-76.957-15.459-2.864-31.353-4.279-47.067-4.385-70.949-0.472-141.897-0.402-212.846-0.073-18.944 0.073-37.957 1.342-56.43 6.382-42.968 11.75-68.154 40.144-76.791 83.408-5.806 29.232-4.899 58.968-5.444 88.561-0.399 21.866-0.072 43.772-0.072 65.638-0.29 0-0.581 0-0.835 0zM358.255 448.907c-0.072-84.677 68.080-153.439 152.384-153.655 85.102-0.252 153.944 68.034 154.127 152.894 0.179 85.113-68.553 153.728-153.838 153.619-84.228-0.072-152.601-68.576-152.673-152.858zM671.334 572.028c20.030 0.545 35.708 16.863 35.163 36.591-0.541 19.801-17.057 35.395-36.941 34.887-19.452-0.508-35.35-17.298-34.695-36.628 0.655-19.765 17.020-35.395 36.473-34.85zM411.568 448.618c0.106 55.194 45.217 100.125 100.198 99.8 55.161-0.325 99.617-45.005 99.471-99.983-0.146-55.45-44.782-99.909-100.089-99.694-55.128 0.256-99.69 44.935-99.58 99.877z" />
<glyph unicode="&#xe90d;" glyph-name="google" d="M320.003 486.415v-92.195h152.466c-6.159-39.524-46.099-115.969-152.466-115.969-91.783 0-166.656 75.975-166.656 169.733 0 93.708 74.873 169.751 166.656 169.751 52.222 0 87.17-22.275 107.14-41.486l72.947 70.299c-46.836 43.776-107.501 70.281-180.087 70.281-148.611 0-268.81-120.213-268.81-268.842s120.195-268.824 268.81-268.824c155.128 0 258.074 109.051 258.074 262.669 0 17.68-1.944 31.114-4.266 44.582h-253.807zM972.807 409.603h-115.21v-115.224h-76.802v115.224h-115.192v76.816h115.192v115.192h76.802v-115.192h115.21v-76.816z" />
<glyph unicode="&#xe90e;" glyph-name="pinterest" d="M511.989 908.807c-254.457 0-460.767-206.285-460.767-460.793 0-195.238 121.463-361.984 292.869-429.108-4.046 36.486-7.666 92.325 1.608 132.185 8.363 35.952 54.043 229.044 54.043 229.044s-13.803 27.585-13.803 68.414c0 64.068 37.126 111.894 83.373 111.894 39.272 0 58.277-29.514 58.277-64.902 0-39.539-25.143-98.625-38.17-153.419-10.859-45.839 22.997-83.293 68.251-83.293 81.899 0 144.814 86.346 144.814 211.032 0 110.311-79.269 187.492-192.424 187.492-131.090 0-208.055-98.383-208.055-199.985 0-39.593 15.256-82.083 34.286-105.167 3.753-4.559 4.313-8.634 3.19-13.215l-12.785-52.222c-2.037-8.442-6.676-10.267-15.44-6.163-57.558 26.779-93.535 110.9-93.535 178.483 0 145.324 105.593 278.907 304.451 278.907 159.828 0 284.080-113.956 284.080-266.173 0-158.835-100.099-286.598-239.148-286.598-46.645 0-90.555 24.207-105.568 52.891l-28.712-109.535c-10.4-40.048-38.466-90.258-57.283-120.845 43.13-13.323 88.972-20.537 136.448-20.537 254.483 0 460.793 206.335 460.793 460.822-0.004 254.512-206.31 460.793-460.793 460.793z" />
<glyph unicode="&#xe90f;" glyph-name="arrowUp" d="M511.989 713.869l-460.796-460.793 70.888-70.895 389.89 389.894 389.948-389.944 70.888 70.892z" />
<glyph unicode="&#xe910;" glyph-name="arrowRight" d="M777.869 448.011l-460.796 460.796-70.892-70.888 389.89-389.89-389.941-389.948 70.892-70.888z" />
<glyph unicode="&#xe911;" glyph-name="arrowDown" d="M512.011 182.131l460.796 460.796-70.888 70.892-389.89-389.89-389.948 389.941-70.888-70.892z" />
<glyph unicode="&#xe912;" glyph-name="arrowLeft" d="M246.131 447.989l460.793-460.796 70.892 70.888-389.887 389.89 389.941 389.948-70.895 70.888z" />
<glyph unicode="&#xe913;" glyph-name="close" d="M972.457 58.681l-389.984 389.973 388.684 388.716-67.922 67.944-388.709-388.709-392.217 392.202-70.765-70.765 392.202-392.217-390.663-390.663 67.973-67.969 390.642 390.678 389.999-390.006z" />
<glyph unicode="&#xe914;" glyph-name="blog" d="M972.807 501.938c0 184.602-189.479 334.825-460.789 334.825s-460.825-150.222-460.825-334.825c0-86.382 16.766-168.328 103.964-230.741 82.737-59.162 193.395-95.54 312.669-102.725 145.172-77.774 348.827-100.182 357.54-101.136l75.975-8.099-43.802 52.107c-0.441 0.509-40.478 49.191-58.378 118.555 128.793 62.825 173.646 163.278 173.646 272.040zM745.729 269.636l-21.357-9.327 3.591-19.862c7.868-42.519 23.496-79.334 38.448-106.999-71.127 12.777-184.093 38.885-268.546 86.010l-7.695 4.31-9.241 0.401c-220.453 10.577-361.962 132.561-361.962 277.769 0 153.582 159.055 278.477 393.055 278.477 233.946 0 392.982-124.899 392.982-278.477 0-93.502-39.972-180.329-159.275-232.302zM611.405 675.114h-40.344l-13.662-103.303h-69.436l12.46 103.303h-40.955l-13.070-103.303h-54.007v-45.124h48.075l-9.49-76.585h-50.449v-45.124h45.684l-14.222-115.712h41.529l14.255 115.712h69.454l-13.662-115.712h41.565l13.626 115.712h55.838v45.124h-50.449l9.425 76.585h52.891v45.124h-47.497l12.441 103.303zM542.565 450.102h-70.046l9.508 76.585h70.046l-9.508-76.585z" />
<glyph unicode="&#xe915;" glyph-name="download" d="M364.361 466.518c-6.268 6.109-16.412 6.109-22.701 0-6.268-6.073-6.268-15.949 0-22.058l160.196-155.876c2.991-2.966 7.066-4.606 11.34-4.606 0.112 0 0.22 0.087 0.332 0.087s0.199-0.087 0.332-0.087c5.339 0 9.833 2.702 12.752 6.6l158.759 154.546c6.286 6.069 6.286 15.946 0 22.058-6.246 6.112-16.39 6.112-22.676 0l-132.781-129.212v555.198c0 8.641-7.174 15.639-16.054 15.639s-16.058-7.001-16.058-15.639v-556.531l-133.442 129.88zM603.96 658.891c-8.861 0-16.036-7.001-16.036-15.639s7.174-15.635 16.036-15.635h208.72v-609.155h-601.337v609.155h208.698c8.861 0 16.036 7.001 16.036 15.635 0 8.641-7.174 15.639-16.036 15.639h-240.788v-671.702h665.495v671.702h-240.788z" />
<glyph unicode="&#xe916;" glyph-name="calender" d="M890.883 822.378h-123.114v57.605c0 15.978-12.734 28.824-28.441 28.824s-28.441-12.85-28.441-28.824v-57.601h-170.47v57.601c0 15.978-12.709 28.824-28.416 28.824-15.704 0-28.416-12.85-28.416-28.824v-57.601h-170.496v57.601c0 15.978-12.738 28.824-28.416 28.824-15.704 0-28.416-12.85-28.416-28.824v-57.601h-123.136c-41.869 0-75.776-34.319-75.776-76.766v-681.6c0-42.447 33.907-76.823 75.776-76.823h757.766c41.84 0 75.772 34.377 75.772 76.823v681.596c-0.004 42.447-33.936 76.766-75.776 76.766zM909.827 64.016c0-10.653-8.515-19.219-18.944-19.219h-757.762c-10.462 0-18.944 8.565-18.944 19.219v681.596c0 10.599 8.486 19.193 18.944 19.193h123.136v-57.598c0-15.953 12.712-28.802 28.416-28.802 15.678 0 28.416 12.85 28.416 28.802v57.598h170.496v-57.598c0-15.953 12.712-28.802 28.416-28.802 15.707 0 28.416 12.85 28.416 28.802v57.598h170.47v-57.598c0-15.953 12.734-28.802 28.441-28.802s28.441 12.85 28.441 28.802v57.598h123.114c10.429 0 18.944-8.594 18.944-19.193v-681.596zM256.256 563.203h113.664v-86.404h-113.664v86.404zM256.256 419.172h113.664v-86.429h-113.664v86.429zM256.256 275.2h113.664v-86.429h-113.664v86.429zM455.168 275.2h113.667v-86.429h-113.667v86.429zM455.168 419.172h113.667v-86.429h-113.667v86.429zM455.168 563.203h113.667v-86.404h-113.667v86.404zM654.109 275.2h113.66v-86.429h-113.66v86.429zM654.109 419.172h113.66v-86.429h-113.66v86.429zM654.109 563.203h113.66v-86.404h-113.66v86.404z" />
<glyph unicode="&#xe917;" glyph-name="funnel" d="M966.648 902.727c-4.591 4.61-10.751 6.362-16.751 5.776h-875.696c-5.979 0.542-12.12-1.207-16.708-5.776-1.875-1.893-3.24-4.086-4.248-6.362-1.228-2.738-2.052-5.657-2.052-8.818 0-6.098 2.699-11.495 6.882-15.277l307.146-429.978v-432.554c-0.181-3.222 0.3-6.362 1.611-9.342 3.121-7.648 10.567-13.005 19.323-13.005 6.34 0 11.816 2.98 15.682 7.409l250.78 250.256c4.75 4.79 6.441 11.152 5.675 17.311v179.823l308.352 430.881c8.215 8.175 8.215 21.48 0.004 29.655v0zM622.38 463.144c-4.386-4.368-6.239-10.148-5.957-15.924v-179.014l-209.352-208.868v387.885c0.3 5.719-1.55 11.556-5.939 15.924l-288.202 403.484h798.197l-288.747-403.488z" />
<glyph unicode="&#xe918;" glyph-name="checkmark" d="M864.046 768.429l-491.362-532.971-219.774 164.12c-25.772 25.743-67.583 25.775-93.354 0-25.775-25.808 13.915-62.612 39.687-88.449l238.725-179.028c12.853-12.857 3.576-11.795 19.876-16.365 24.778-6.958 11.99-21.335 24.847-8.414 0.065 0 12.987 8.016 13.052 8.081l565.631 595.416c25.84 25.772 3.313 42.436-22.459 68.211-25.84 25.808-49.098 15.205-74.869-10.603z" />
<glyph unicode="&#xe919;" glyph-name="link" d="M537.515 513.827c-9.793-10.841-9.793-28.297 0-39.141 40.471-44.918 40.471-117.887 0-162.743l-212.48-235.777c-40.438-44.856-106.208-44.856-146.678 0l-31.974 35.464c-40.438 44.921-40.438 117.89 0 162.805l212.48 235.683c9.793 10.906 9.793 28.268 0 39.203-9.793 10.812-25.515 10.812-35.309 0l-212.451-235.774c-29.008-32.133-45.073-75.010-45.073-120.484 0-45.478 15.881-88.355 45.073-120.546l31.974-35.464c29.937-33.181 69.263-49.863 108.617-49.863 39.358 0 78.716 16.683 108.621 49.863l212.484 235.712c59.866 66.423 59.866 174.639 0 241.059-9.635 10.848-25.454 10.848-35.283 0.004zM913.118 823.53l-32.003 35.464c-59.812 66.419-157.371 66.419-217.245 0l-212.448-235.716c-59.87-66.419-59.87-174.639 0-241.026 9.793-10.874 25.486-10.874 35.28 0s9.793 28.297 0 39.109c-40.471 44.921-40.471 117.887 0 162.743l212.455 235.745c40.464 44.885 106.208 44.885 146.736 0l31.884-35.464c40.529-44.889 40.529-117.858 0-162.714l-212.426-235.777c-9.757-10.812-9.757-28.235 0-39.109 4.826-5.314 11.246-8.215 17.546-8.215 6.307 0 12.727 2.655 17.546 8.215l212.48 235.716c28.976 32.191 45.044 75.006 45.044 120.513s-15.808 88.326-44.849 120.517z" />
<glyph unicode="&#xe91a;" glyph-name="plus" d="M972.807 496.046h-414.22v411.301h-93.174v-411.301h-414.22v-94.633h414.22v-412.761h93.174v412.761h414.22v94.633z" />
<glyph unicode="&#xe91b;" glyph-name="minus" d="M51.193 401.388v93.221h921.614v-93.221h-921.614z" />
<glyph unicode="&#xe91c;" glyph-name="doubleArrowUp" d="M512.025 478.688l-416.171-416.2c-10.317-10.288-26.693-10.288-36.949 0-5.014 5.014-7.716 11.751-7.716 18.29 0 6.575 2.507 13.381 7.716 18.362l434.779 434.786c10.025 10.288 26.628 10.288 36.685 0.195l434.776-434.786c10.22-10.22 10.22-26.628 0-36.848-10.238-10.288-26.66-10.288-36.916 0l-416.204 416.2zM512.025 778.251l-416.171-416.214c-10.317-10.288-26.693-10.288-36.949 0-5.014 5.014-7.716 11.784-7.716 18.294 0 6.575 2.507 13.377 7.716 18.359l434.779 434.79c10.025 10.303 26.628 10.303 36.685 0.195l434.776-434.79c10.22-10.22 10.22-26.628 0-36.848-10.238-10.288-26.66-10.288-36.916 0l-416.204 416.214z" />
<glyph unicode="&#xe91d;" glyph-name="doubleArrowRight" d="M542.688 447.975l-416.204 416.168c-10.288 10.317-10.288 26.693 0 36.949 5.014 5.014 11.751 7.716 18.29 7.716 6.575 0 13.381-2.507 18.362-7.716l434.79-434.776c10.288-10.025 10.288-26.624 0.199-36.681l-434.794-434.776c-10.22-10.22-26.628-10.22-36.848 0-10.288 10.238-10.288 26.66 0 36.916l416.204 416.2zM842.248 447.975l-416.214 416.168c-10.288 10.317-10.288 26.693 0 36.949 5.014 5.014 11.784 7.716 18.294 7.716 6.575 0 13.377-2.507 18.359-7.716l434.794-434.776c10.306-10.025 10.306-26.624 0.195-36.681l-434.794-434.776c-10.22-10.22-26.628-10.22-36.848 0-10.288 10.238-10.288 26.66 0 36.916l416.214 416.2z" />
<glyph unicode="&#xe91e;" glyph-name="doubleArrowDown" d="M511.975 417.312l416.171 416.204c10.314 10.288 26.693 10.288 36.945 0 5.018-5.014 7.72-11.751 7.72-18.29 0-6.575-2.511-13.381-7.72-18.362l-434.776-434.79c-10.025-10.288-26.624-10.288-36.681-0.199l-434.776 434.794c-10.22 10.22-10.22 26.628 0 36.848 10.238 10.288 26.66 10.288 36.916 0l416.2-416.204zM511.975 117.752l416.171 416.214c10.314 10.288 26.693 10.288 36.945 0 5.018-5.014 7.72-11.784 7.72-18.294 0-6.575-2.511-13.377-7.72-18.359l-434.776-434.794c-10.025-10.306-26.624-10.306-36.681-0.195l-434.776 434.794c-10.22 10.22-10.22 26.628 0 36.848 10.238 10.288 26.66 10.288 36.916 0l416.2-416.214z" />
<glyph unicode="&#xe91f;" glyph-name="doubleArrowLeft" d="M481.312 448.025l416.2-416.171c10.288-10.317 10.288-26.693 0-36.949-5.014-5.014-11.751-7.716-18.29-7.716-6.575 0-13.381 2.507-18.362 7.716l-434.786 434.776c-10.288 10.025-10.288 26.628-0.195 36.689l434.786 434.772c10.22 10.223 26.628 10.223 36.848 0 10.288-10.238 10.288-26.66 0-36.913l-416.2-416.204zM181.749 448.025l416.214-416.171c10.288-10.317 10.288-26.693 0-36.949-5.014-5.014-11.784-7.716-18.294-7.716-6.575 0-13.377 2.507-18.359 7.716l-434.79 434.776c-10.303 10.025-10.303 26.628-0.195 36.689l434.79 434.772c10.22 10.223 26.628 10.223 36.848 0 10.288-10.238 10.288-26.66 0-36.913l-416.214-416.204z" />
<glyph unicode="&#xe920;" glyph-name="touchLeft" d="M853.302 483.757c-17.521 0-32.137-5.816-43.802-14.58 0 40.865-32.14 73.016-73.045 73.016-17.524 0-35.045-5.831-49.665-17.546-11.665 29.24-37.946 46.76-67.156 46.76-17.55 0-32.14-5.859-43.834-14.62v146.057c0 40.886-32.14 73.001-73.016 73.001-14.927 0-28.654-4.284-40.12-11.719l-4.685-4.642h-302.944l120.784 120.752c6.445 6.445 6.445 17.13 0 23.59-6.643 6.64-17.358 6.64-23.828 0l-149.355-149.391c-6.64-6.459-6.64-17.116 0-23.59l149.355-149.366c6.416-6.64 17.185-6.64 23.828 0 6.445 6.445 6.445 17.159 0 23.814l-120.784 120.571 278.448 0.083c-2.345-7.254-3.71-14.981-3.71-23.102v-259.967c-58.425 52.58-122.709 93.481-163.61 52.58-58.396-58.425 64.284-172.342 157.751-344.683 67.185-119.747 160.655-163.581 254.15-163.581 137.271 0 248.284 110.991 248.284 248.287v175.243c0 40.933-32.14 73.034-73.045 73.034zM897.136 346.471v-110.991c0-113.92-99.326-219.102-219.102-219.102-110.991 0-175.246 61.351-227.837 146.032-113.917 192.821-195.696 280.471-163.552 312.583 32.115 32.115 110.991-37.96 172.313-102.241v330.092c0 8.345 2.709 16.292 7.146 23.113h0.863v1.369c8.092 11.495 21.4 19.345 35.825 19.345 23.355 0 43.834-20.479 43.834-43.83v-306.712h29.182v102.23c0 23.38 20.45 43.83 43.834 43.83 23.351 0 43.805-20.45 43.805-43.83v-73.016h29.211v43.83c0 23.369 20.45 43.791 43.834 43.791 23.351 0 43.802-20.421 43.802-43.791v-73.045h29.214v14.591c0 23.409 20.45 43.834 43.802 43.834 23.384 0 43.834-20.421 43.834-43.834v-64.248z" />
<glyph unicode="&#xe921;" glyph-name="globe" d="M837.801 773.743c-86.935 87.112-202.799 135.064-325.772 135.064-123.031 0-238.891-47.952-325.772-135.064-86.881-87.054-135.064-202.741-135.064-325.743s47.952-238.92 135.064-325.801c87.054-86.881 202.741-135.006 325.772-135.006 122.977 0 238.837 47.952 325.772 135.006 86.881 87.112 135.006 202.799 135.006 325.801s-47.949 238.866-135.006 325.743zM931.047 468.678h-178.678c-1.68 71.090-11.629 139.547-29.153 200.313 34.073 17.495 65.885 39.506 95.038 65.477 65.823-70.364 107.757-163.263 112.793-265.79zM532.678 427.293h178.505c-1.503-65.419-10.527-128.096-26.144-184.086-48.126 19.32-99.492 30.656-152.361 33.083v151.003zM788.519 763.216c-24.063-21.227-50.441-39.304-78.261-54.343-7.117 19.927-15.216 38.755-24.236 56.427-17.875 35.374-38.177 64.321-60.621 86.534 61.142-17.123 116.669-47.779 163.119-88.618zM532.678 861.032c43.094-9.573 83.698-49.285 116.438-113.953 8.847-17.495 16.776-36.15 23.712-55.875-44.192-18.25-91.393-28.979-140.154-31.407v201.234zM685.266 651.492c15.389-55.643 24.236-117.912 25.743-182.988h-178.331v149.727c53.042 2.431 104.405 13.912 152.588 33.26v0zM491.322 468.678h-178.505c1.506 65.076 10.353 127.341 25.8 183.017 48.126-19.551 99.662-30.833 152.531-33.116v-149.901h0.173zM491.495 861.032v-201.238c-48.704 2.428-96.078 13.16-140.096 31.407 6.94 19.724 14.865 38.379 23.716 55.875 32.679 64.671 73.345 104.38 116.38 113.956zM398.773 851.834c-22.387-22.213-42.689-51.366-60.564-86.534-8.851-17.672-16.888-36.501-24.236-56.427-27.823 15.039-53.967 33.116-78.261 54.343 46.446 40.839 101.92 71.495 163.061 88.618zM205.981 734.468c29.153-25.97 60.965-47.779 94.98-65.477-17.47-60.939-27.65-129.194-29.153-200.313h-178.678c5.086 102.526 47.024 195.426 112.851 265.79zM93.13 427.293h178.674c1.734-71.64 11.86-140.299 29.557-201.44-33.838-17.47-65.65-39.102-94.63-65.076-66.405 70.512-108.516 163.643-113.602 266.516zM236.464 132.032c24.063 21.054 50.207 39.102 77.857 53.967 7.171-19.377 15.039-38.004 23.889-55.354 17.875-35.287 38.177-64.263 60.564-86.649-60.737 17.12-116.034 47.548-162.31 88.037zM491.495 34.972c-43.036 9.602-83.698 49.285-116.38 113.953-8.677 17.12-16.372 35.399-23.369 54.719 44.018 18.279 91.216 29.037 139.75 31.234v-199.905zM339.196 243.207c-15.617 55.99-24.641 118.667-26.147 184.086h178.447v-151.003c-52.811-2.254-104.177-13.532-152.299-33.083v0zM532.913 34.972v199.909c48.53-2.431 95.728-12.958 139.75-31.234-7.001-19.323-14.692-37.599-23.311-54.719-32.74-64.675-73.402-104.354-116.438-113.956v0zM625.635 44.166c22.383 22.213 42.685 51.308 60.564 86.707 8.847 17.354 16.715 35.919 23.886 55.3 27.65-14.865 53.797-32.91 77.86-53.967-46.276-40.662-101.576-71.090-162.31-88.040zM817.849 160.781c-28.979 25.8-60.737 47.606-94.633 65.076 17.701 61.142 27.881 129.974 29.561 201.44h178.678c-5.267-102.877-47.378-196.007-113.606-266.516v0z" />
<glyph unicode="&#xe922;" glyph-name="panorama" horiz-adv-x="909" d="M641.464 502.375v3.899c0 23.147-18.849 41.965-41.98 41.965-5.249 0-10.238-0.952-14.874-2.701-3.914 19.095-20.86 33.508-41.121 33.508-5.51 0-10.76-1.059-15.58-2.978-5.081 17.606-21.965 30.99-41.351 30.99-5.234 0-10.253-0.998-14.935-2.84v50.423c0 23.162-18.849 41.996-41.996 41.996-23.162 0-41.996-18.849-41.996-41.996v-123.67c-7.352 9.378-16.178 17.56-26.432 21.781-11.451 4.712-23.5 4.144-34.843-1.612-20.875-10.606-29.471-36.178-19.187-57.007l52.157-105.588c1.474-2.901 36.823-70.929 100.814-70.929h74.659c58.849 0 106.755 48.166 106.755 107.338l-0.061 77.422h-0.031zM534.832 345.597h-74.659c-46.109 0-74.828 53.646-75.856 55.626l-52.034 105.281c-3.592 7.291-0.614 15.902 6.769 19.662 4.068 2.072 7.613 2.272 11.497 0.691 15.457-6.339 30.637-36.884 36.562-54.598l4.497-13.569 24.037 8.519v187.415c0 7.721 6.278 13.999 13.999 13.999s13.999-6.278 13.999-13.999v-161.444h28.258v70.914c0 7.813 6.984 14.935 14.674 14.935 7.966 0 14.92-6.539 14.92-13.983v-76.516h28.028v48.519c0 7.721 6.247 13.999 13.983 13.999 7.705 0 13.983-6.278 13.983-13.999v-61.597h27.982v30.806c0 7.705 6.293 13.983 14.014 13.983s13.999-6.278 13.999-13.983v-20.031h0.061l0.061-61.321c0-43.715-35.35-79.31-78.773-79.31zM131.667 488.208h-114.782zM132.511 504.309h-74.199l23.577 20.875c7.23 6.401 7.23 16.101 1.612 22.502-6.401 6.385-16.101 7.245-22.487 1.612l-55.396-48.98c-4.052-3.239-5.618-7.276-5.618-12.111s2.394-8.841 5.633-12.034l55.396-48.949c10.161-8.104 19.709-3.085 22.487 0.752 5.618 6.385 4.85 16.854-1.612 22.487l-23.976 21.658h73.815c8.841 0 16.884 7.26 16.884 16.101-0.015 8.857-7.337 16.086-16.117 16.086zM897.675 488.208h-114.798zM765.947 488.208c0-8.841 8.012-16.101 16.884-16.101h73.8l-23.976-21.658c-6.447-5.633-7.23-16.101-1.596-22.487 2.778-3.837 12.326-8.857 22.487-0.752l55.38 48.949c3.239 3.193 5.633 7.199 5.633 12.034s-1.566 8.872-5.633 12.111l-55.38 48.98c-6.385 5.618-16.086 4.774-22.487-1.612-5.618-6.401-5.618-16.101 1.596-22.502l23.577-20.875h-74.183c-8.78 0.015-16.101-7.214-16.101-16.086zM488.861 845.218v114.782zM504.962 822.27v74.183l20.86-23.577c6.416-7.245 16.117-7.245 22.517-1.612 6.385 6.416 7.245 16.117 1.596 22.502l-48.98 55.38c-3.239 4.083-7.26 5.618-12.111 5.618-4.835 0-8.841-2.364-12.019-5.618l-48.964-55.38c-8.104-10.161-3.085-19.709 0.767-22.502 6.385-5.618 16.854-4.835 22.487 1.612l21.643 23.976v-73.8c0-8.857 7.26-16.9 16.101-16.9 8.872 0.015 16.101 7.337 16.101 16.117zM504.962 187.1v-74.199l20.86 23.577c6.416 7.245 16.117 7.245 22.517 1.612 6.385-6.401 7.245-16.117 1.596-22.487l-48.98-55.38c-3.239-4.083-7.26-5.633-12.111-5.633-4.835 0-8.841 2.394-12.019 5.633l-48.964 55.38c-8.104 10.146-3.085 19.709 0.767 22.487 6.385 5.618 16.854 4.835 22.487-1.612l21.643-23.96v73.8c0 8.857 7.26 16.884 16.101 16.884 8.872 0 16.101-7.306 16.101-16.101z" />
<glyph unicode="&#xe923;" glyph-name="play" horiz-adv-x="923" d="M917.158 498.73c0 87.427-24.867 169.14-67.815 238.527h0.074c-0.793 1.268-1.661 2.459-2.459 3.709-3.542 5.609-7.196 11.121-10.955 16.55-1.776 2.574-3.602 5.106-5.424 7.634-3.049 4.165-6.135 8.266-9.299 12.325-2.412 3.086-4.769 6.181-7.237 9.211-1.882 2.292-3.856 4.516-5.803 6.767-73.788 86.865-178.683 145.426-298.247 157.322-0.678 0.074-1.37 0.148-2.048 0.208-6.531 0.632-13.058 1.158-19.668 1.504-5.014 0.281-10.046 0.383-15.106 0.512-2.781 0.046-5.498 0.268-8.298 0.268-0.424 0-0.853-0.032-1.264-0.032-0.323 0-0.632 0.032-0.955 0.032-1.78 0-3.501-0.175-5.268-0.194-6.518-0.101-12.989-0.304-19.433-0.673-4.617-0.268-9.179-0.646-13.736-1.042-4.359-0.387-8.649-0.858-12.966-1.356-4.193-0.517-8.367-0.982-12.519-1.587-219.39-32.145-388.382-221.511-388.382-449.665 0-249.874 202.697-453.286 452.304-454.476v-0.065c0.369 0 0.72 0.009 1.102 0.009s0.738-0.009 1.116-0.009v0.065c249.579 1.185 452.285 204.602 452.285 454.458zM464.047 77.912c-231.692 0.443-420.043 189.043-420.043 420.836 0 224.302 176.377 408.156 397.741 420.204 4.207 0.203 8.469 0.304 12.74 0.397 3.026 0.069 6.061 0.217 9.119 0.231 3.971-0.014 7.915-0.189 11.873-0.304 3.326-0.088 6.661-0.148 9.972-0.309 221.498-11.887 398.055-195.796 398.055-420.237 0-231.604-188.047-420.071-419.457-420.818zM658.958 503.956l-284.672 164.375c-5.443 3.146-11.725 3.146-17.15 0-5.429-3.146-8.575-8.856-8.575-14.857v-328.995c0-6.029 3.132-11.73 8.575-14.866 2.56-1.444 5.706-2.269 8.575-2.269 2.855 0 6.006 0.83 8.575 2.269l284.677 164.361c5.443 3.155 8.589 8.856 8.589 14.848 0 6.001-3.15 12.011-8.593 15.134z" />
<glyph unicode="&#xe924;" glyph-name="tourDistance" d="M906.46 307.922l-348.079 91.042 307.456 62.876-7.76 40.409-390.573-81.032c-24.103-5.195-17.434-38.755 0-40.42l313.226-83.077-355.691-24.309c-19.479-2.774-23.369-24.666-11.676-36.512l116.084-109.415-253.316-20.223 1.853-40.446 295.792 24.309c14.287-1.131 27.646 20.765 11.665 36.54l-114.029 109.415 433.023 30.424c21.325 0.921 23.738 34.481 2.023 40.417v0zM972.807 731.433c0 54.722-44.018 97.754-97.259 97.754-53.14 0-97.288-43.029-97.288-97.754 0-54.614 97.288-200.635 97.288-200.635s97.259 146.021 97.259 200.635zM209.2 575.088c-86.274 0-158.007-69.92-158.007-158.806 0-88.705 158.007-325.88 158.007-325.88s157.982 237.175 157.982 325.88c0.004 89.077-71.719 158.806-157.982 158.806v0z" />
<glyph unicode="&#xe925;" glyph-name="tourAscend" d="M961.11 467.786l-414.582 414.582c-5.372 5.372-31.013 23.951-39.456 23.951-8.464 0-26.714-13.644-32.086-19.020l-414.582-414.6c-12.283-12.283-12.283-32.224 0-44.506 6.141-6.138 21.187-16.621 29.633-16.621s25.949-4.281 32.090 1.882l346.085 360.824v-753.16c0-17.618 16.292-31.436 33.95-31.436s43.755 13.818 43.755 31.436v753.16l360.846-360.824c12.279-12.301 42.068-2.493 54.35 9.808 12.283 12.283 16.43 22.419 4.913 34.72l-4.917 9.804z" />
<glyph unicode="&#xe926;" glyph-name="tourDescend" d="M961.11 428.185l-414.582-414.56c-5.372-5.375-31.013-23.955-39.456-23.955-8.464 0-26.714 13.626-32.108 19.042l-414.56 414.582c-12.283 12.301-12.283 32.242 0 44.502 6.141 6.163 21.187 16.621 29.633 16.621s25.949 4.281 32.090-1.864l346.085-360.802v753.138c0 17.636 16.274 31.436 33.95 31.436 17.658 0 43.755-13.8 43.755-31.436v-753.138l360.846 360.802c12.279 12.301 42.068 2.457 54.35-9.826s16.43-22.419 4.913-34.72l-4.917-9.822z" />
<glyph unicode="&#xe927;" glyph-name="tourTourBike" d="M797.138 525.882c-7.211 0-14.266-0.484-21.263-1.34l-43.765 149.897c4.277 4.978 6.867 11.459 6.867 18.561 0 15.718-12.77 28.488-28.506 28.488h-117.569c-15.732 0-28.506-12.77-28.506-28.488 0-15.751 12.77-28.521 28.506-28.521h74.454l-30.251-48.187c-1.34 0.173-2.717 0.264-4.089 0.231l-254.53-3.685c6.307 5.213 10.332 13.128 10.332 21.932 0 15.747-12.77 28.521-28.503 28.521h-68.659c-15.732 0-28.503-12.77-28.503-28.521 0-15.732 12.77-28.488 28.503-28.488h5.133c0.686-2.561 1.72-5.043 3.154-7.416l11.455-18.839-31.595-62.33c-16.715 5.292-34.496 8.179-52.948 8.179-96.869 0-175.669-78.81-175.669-175.669 0-96.869 78.8-175.701 175.669-175.701 83.651 0 153.784 58.815 171.377 137.239l93.986-5.433c0.564-0.065 1.109-0.065 1.655-0.065 9.772 0 18.904 4.996 24.132 13.33l176.355 280.72 26.816-91.721c-58.938-28.394-99.712-88.727-99.712-158.376 0-96.869 78.796-175.701 175.669-175.701 96.869 0 175.669 78.828 175.669 175.701 0.007 96.873-78.789 175.683-175.662 175.683zM346.244 522.699l94.984-156.346-39.68 2.279c-5.292 50.499-32.047 94.658-70.946 123.222l15.642 30.844zM108.198 350.213c0 65.419 53.227 118.667 118.663 118.667 9.165 0 18.077-1.080 26.646-3.078l-52.074-102.725c-4.339-8.554-4.075-18.734 0.719-27.097 4.794-8.305 13.471-13.673 23.055-14.237l115.011-6.647c-14.999-48.361-60.141-83.543-113.357-83.543-65.433 0-118.663 53.227-118.663 118.66zM271.956 376.126l32.361 63.876c19.981-17.264 34.138-41.020 39.163-67.995l-71.524 4.118zM494.237 388.892l-101.573 167.161 208.481 3.013-106.908-170.174zM797.138 231.553c-65.433 0-118.663 53.227-118.663 118.663 0 43.675 23.756 81.921 59.003 102.508l32.281-110.499c4.436-15.111 20.259-23.792 35.37-19.388 15.111 4.436 23.788 20.259 19.356 35.37l-32.281 110.535c1.622 0.076 3.277 0.141 4.931 0.141 65.433 0 118.663-53.245 118.663-118.667 0.004-65.437-53.227-118.663-118.66-118.663z" />
<glyph unicode="&#xe928;" glyph-name="tourRaceBike" d="M314.494 134.702c-21.827-16.798-48.783-27.162-78.355-27.162-71.296 0-129.273 58.010-129.273 129.273 0 71.332 57.977 129.31 129.273 129.31 53.812 0 99.943-33.051 119.393-79.941l40.489 42.003c-31.88 55.633-91.162 93.571-159.882 93.571-102.144 0-184.942-82.762-184.942-184.942 0-102.115 82.799-184.91 184.942-184.91 48.061 0 91.44 18.76 124.317 48.848-12.637 4.237-24.583 10.949-34.843 20.797-4.201 4.1-7.85 8.544-11.119 13.153zM595.279 420.379l-97.913 56.857c43.657 27.336 27.473 17.214 71.163 44.549l-1.38-13.923c-2.373-23.669 15.082-45.341 37.046-49.784 0.517-0.101 171.93-29.247 178.158-29.247 22.275 0 41.93 16.094 45.684 38.798 4.201 25.251-12.875 49.13-38.148 53.328l-126.174 20.949 5.99 60.213c6.058 38.473 8.674 50.539-5.682 73.486l-18.073 28.886c-23.308 37.267-72.503 48.664-109.856 25.269l-197.673-123.75c-48.545-30.399-72.228-94.503-32.567-141.65 15.454-18.42 166.005-110.907 166.005-110.907l-121.908-126.485c-21.343-22.137-20.721-57.356 1.416-78.702 10.809-10.397 24.717-15.563 38.625-15.563 14.598 0 29.157 5.646 40.073 17.008l177.334 183.909c24.995 25.891 19.143 68.583-12.12 86.758zM803.012 672.99c43.379 27.144 56.496 84.28 29.37 127.622-27.13 43.361-84.28 56.496-127.622 29.352-43.343-27.13-56.46-84.244-29.33-127.568 27.126-43.364 84.24-56.536 127.583-29.406zM787.901 421.759c-103.209 0-184.938-85.139-184.938-184.942 0-102.115 82.759-184.91 184.938-184.91 102.115 0 184.91 82.795 184.91 184.91-0.004 102.18-82.799 184.942-184.91 184.942zM787.901 107.54c-71.296 0-129.306 58.010-129.306 129.273 0 71.332 58.010 129.31 129.306 129.31 71.267 0 129.273-57.977 129.273-129.31 0-71.264-58.010-129.273-129.273-129.273z" />
<glyph unicode="&#xe929;" glyph-name="tourMountainBike" d="M322.047 771.659l-167.154-205.317c0 0-64.245 24.634-60.86 70.534 3.385 45.904 83.091 180.665 228.014 134.782zM416.251 761.504c0 0-28.987 10.639-59.429-24.135-30.421-34.796-155.063-191.791-155.063-191.791s-33.325-65.213 17.398-93.716c50.72-28.524 195.158-61.846 200.964-73.923 5.787-12.077 89.362-187.904 89.362-187.904s22.199-37.23 57.489-15.946c35.262 21.252-4.331 95.637-4.331 95.637s-60.394 166.19-76.339 177.782c-15.946 11.593-126.091 57.489-126.091 57.489l107.248 128.013 3.869 1.933 5.787-1.449 97.566-32.859 140.104-46.363c0 0 35.76-5.805 43.502 15.458 7.742 21.249 5.802 41.547-13.045 51.204-18.85 9.653-328.991 140.57-328.991 140.57zM656.446 818.957c0-49.625-40.2-89.847-89.828-89.847-49.625 0-89.847 40.222-89.847 89.847 0 49.629 40.222 89.85 89.847 89.85 49.629 0 89.828-40.222 89.828-89.85zM242.731 366.437c-104.737 0-189.638-84.887-189.638-189.624 0-104.734 84.901-189.62 189.638-189.62s189.642 84.887 189.642 189.62c0 104.737-84.905 189.624-189.642 189.624zM249.74 46.532c-64.335 0-130.285 65.932-130.285 130.281 0 64.353 65.95 127.529 130.285 127.529 64.339 0 127.543-63.172 127.543-127.529 0-64.35-63.208-130.281-127.543-130.281zM790.242 491.545c-99.752 0-180.665-80.895-180.665-180.687s80.909-180.665 180.665-180.665c99.792 0 180.665 80.873 180.665 180.665s-80.873 180.687-180.665 180.687zM796.943 183.337c-61.308 0-122.005 66.217-122.005 127.525 0 61.311 60.701 124.783 122.005 124.783 61.311 0 122.005-63.472 122.005-124.783 0.004-61.308-60.694-127.525-122.005-127.525z" />
<glyph unicode="&#xe92a;" glyph-name="tourSingleTrail" d="M766.804 337.208c-96.66 0-175.044-78.348-175.044-175.008 0-17.698 3.425-34.478 8.352-50.676-84.504-19.352-184.108-17.737-239.867 69.725-43.729 68.536 64.147 145.418 221.277 246.409 150.649 96.855 306.416 197.037 250.852 320.675-20.010 44.481-54.26 75.751-101.822 93.083-93.929 34.268-224.051 4.906-319.016-26.74-29.283 55.759-87.022 94.142-154.323 94.142-96.642 0-175.026-78.362-175.026-175.026 0-96.624 78.384-175.004 175.026-175.004 96.66 0 175.026 78.38 175.026 175.004 0 4.252-0.943 8.215-1.25 12.351 89.561 29.901 202.907 55.047 275.399 28.669 29.247-10.657 49.332-28.878 61.301-55.524 30.594-67.995-104.936-155.074-224.492-232.017-153.633-98.722-327.795-210.699-242.771-344.069 53.277-83.579 135.006-112.208 219.124-112.208 39.076 0 78.135 7.308 115.654 17.008 32.090-37.017 78.803-60.798 131.6-60.798 96.624 0 175.008 78.348 175.008 175.004 0 96.653-78.384 175-175.008 175z" />
<glyph unicode="&#xe92b;" glyph-name="tourRoundTrail" d="M519.994 900.802c-92.177 0-177.894-27.842-249.494-75.31-13.988 3.598-28.412 6.091-43.505 6.091-97.086 0-175.802-78.698-175.802-175.799 0-36.371 11.061-70.155 29.998-98.188-8.811-35.189-13.991-71.752-13.991-109.607 0-249.682 203.113-452.795 452.798-452.795 249.664 0 452.813 203.113 452.813 452.795s-203.149 452.813-452.816 452.813zM519.994 59.147c-214.416 0-388.868 174.408-388.868 388.846 0 19.793 1.958 39.091 4.834 58.103 26.624-16.235 57.572-26.111 91.031-26.111 97.061 0 175.781 78.716 175.781 175.799 0 54.888-25.66 103.267-65.072 135.509 54.43 29.005 116.42 45.601 182.29 45.601 214.416 0 388.9-174.466 388.9-388.9s-174.48-388.846-388.897-388.846z" />
<glyph unicode="&#xe92c;" glyph-name="tourChildren" d="M723.566 864.742c52.786 0 95.565-42.797 95.565-95.551 0-52.786-42.779-95.565-95.565-95.565-52.79 0-95.565 42.779-95.565 95.565 0 52.757 42.776 95.551 95.565 95.551zM967.056 384.048l-147.061 252.434c-7.019 12.080-21.314 20.631-32.119 20.631-2.594 0-122.576 0-125.166 0-10.765 0-25.064-8.551-32.122-20.631l-110.795-190.198-123.006 211.136c-7.832 13.449-21.968 20.884-36.479 20.848-0.271 0.036-0.524 0.054-0.791 0.054h-118.248c-0.289 0-0.538-0.018-0.813-0.054-14.511 0.036-28.644-7.398-36.475-20.848l-147.058-252.42c-11.701-20.093-4.895-45.803 15.18-57.544 6.661-3.851 13.951-5.726 21.137-5.726 14.475 0 28.571 7.528 36.385 20.924l64.87 111.316v-47.671l-29.023-209.193c-2.449-17.571 11.235-33.307 29.023-33.307v0-128.049c0-24.088 18.724-44.578 42.779-45.406 25.259-0.936 46.020 19.302 46.020 44.362v129.093h35.070v-128.049c0-24.088 18.724-44.578 42.797-45.406 25.262-0.936 46.002 19.302 46.002 44.362v129.093c17.788 0 31.49 15.732 29.041 33.307l-29.041 209.229v46.124l63.988-109.806c2.178-3.746 17.264-30.143 27.545-36.118 6.661-3.887 13.955-5.726 21.14-5.726 14.475 0 28.589 7.489 36.403 20.884l63.049 108.205-0.647-372.362c0-24.558 19.876-44.437 44.434-44.437 0.076 0 0.181 0 0.289 0 0.105 0 0.217 0 0.285 0 24.561 0 44.437 19.88 44.437 44.437l-0.65 224.654c0 9.364 7.059 17.503 16.383 18.113 10.227 0.65 18.727-7.416 18.727-17.499v-224.261c0-24.056 18.687-44.582 42.743-45.409 25.277-0.9 46.052 19.265 46.052 44.401v372.37l63.053-108.205c7.778-13.395 21.895-20.884 36.367-20.884 7.2 0 14.475 1.839 21.137 5.726 20.093 11.701 26.895 37.447 15.158 57.504zM151.050 696.475l23.658 2.088c13.594 1.207 23.171 13.919 20.526 27.314-4.068 20.472-5.473 48.921 11.52 66.456-0.018-0.719-0.054-1.456-0.054-2.214 0-52.771 42.779-95.551 95.551-95.551s95.547 42.779 95.547 95.551c0 0.755-0.036 1.496-0.054 2.214 16.997-17.553 15.592-45.984 11.52-66.456-2.644-13.395 6.932-26.108 20.544-27.314l23.64-2.088c12.496-1.152 23.586 7.958 24.919 20.436 3.258 30.32 2.702 75.761-14.439 93.838-25.295 26.628-56.59 26.917-76.805 23.225-15.881 30.699-47.909 51.709-84.872 51.709-36.945 0-68.974-20.996-84.872-51.709-20.219 3.692-51.493 3.403-76.787-23.225-17.141-18.077-17.698-63.519-14.457-93.838 1.326-12.478 12.42-21.588 24.915-20.436z" />
<glyph unicode="&#xe92d;" glyph-name="newsletter" horiz-adv-x="1240" d="M1233.893 578.641l-605.211 381.359-33.576-17.57-581.686-359.882-0.674-639.434h44.167v-0.054h1182.666l-5.686 635.581zM621.676 856.899l491.251-293.322-192.027-126.922 3.8 193.617h-606.073l-3.853-193.563-192.054 119.242 498.957 300.948zM845.15 560.155v-176.371l-219.621-139.695-227.274 143.414v172.598l446.895 0.054zM91.432 54.326v427.251l320.728-200.057-320.728-227.193zM157.265 13.15l327.141 225.199 137.297-89.034 137.324 89.034 327.141-225.199h-928.903zM1155.746 50.472l-320.728 227.274 316.982 207.71 3.827-427.331-0.081-7.653zM486.562 501.895h260.5v-53.895h-260.5v53.895zM486.562 398.605h260.5v-53.895h-260.5v53.895z" />
<glyph unicode="&#xe92e;" glyph-name="wandern" horiz-adv-x="1423" d="M1397.414 170.614v44.85c0 68.206-54.928 131.54-122.465 141.141l-332.29 47.525c-47.381 6.782-105.509 48.671-126.955 91.467l-77.186 154.419-60.612-30.569-21.064-14.186c-1.767-1.194-3.582-2.102-5.493-2.818-4.776-12.992-16.717-22.64-31.381-23.738-19.965-1.481-37.399 13.517-38.832 33.53-1.481 19.965 13.517 37.399 33.482 38.832 5.588 0.43 10.938-0.478 15.857-2.34l19.153 12.896 64.767 36.778-21.828 43.465-57.985-29.327-21.064-14.186c-1.767-1.194-3.582-2.102-5.493-2.77-4.776-12.992-16.717-22.64-31.381-23.738-19.965-1.481-37.399 13.517-38.879 33.482s13.517 37.399 33.53 38.879c5.588 0.43 10.938-0.478 15.857-2.388l19.153 12.896 62.236 35.345-41.411 82.726c-30.33 60.707-106.274 97.819-172.808 84.541l-308.838-61.806c-66.2-13.23-120.077-78.953-120.077-146.49v-578.415c-15.571-13.995-25.41-34.246-25.41-56.695v-50.82c0-42.080 34.199-76.23 76.23-76.23v-25.362c0-14.090 11.368-25.458 25.41-25.458 13.995 0 25.41 11.368 25.41 25.458v25.362h50.82v-25.362c0-14.090 11.368-25.458 25.41-25.458s25.41 11.368 25.41 25.458v25.362h50.82v-25.362c0-14.090 11.368-25.458 25.41-25.458 13.995 0 25.41 11.368 25.41 25.458v25.362h50.82c38.354 0 66.152 15.475 90.655 29.088 19.87 10.986 37.16 20.729 58.415 21.637l127.91-37.59c0.334-0.096 0.716-0.191 1.099-0.287 28.324-6.973 72.791-12.514 103.073-12.896v-25.362c0-14.090 11.368-25.458 25.362-25.458 14.090 0 25.458 11.368 25.458 25.458v25.362h50.773v-25.362c0-14.090 11.368-25.458 25.458-25.458 13.995 0 25.362 11.368 25.362 25.458v25.362h50.82v-25.362c0-14.090 11.368-25.458 25.362-25.458s25.362 11.368 25.362 25.458v25.362h50.82v-25.362c0-14.090 11.368-25.458 25.458-25.458 13.995 0 25.362 11.368 25.362 25.458v25.362h50.82v-25.362c0-14.090 11.368-25.458 25.362-25.458s25.362 11.368 25.362 25.458v25.362h50.82v-25.362c0-14.090 11.368-25.458 25.362-25.458 14.090 0 25.458 11.368 25.458 25.458v25.362h25.362c41.984 0 76.23 34.151 76.23 76.23v50.82c0.143 22.497-9.696 42.748-25.267 56.743zM657.798 558.692c3.439 0.239 6.782 0 9.983-0.669l19.87 13.326 70.26 39.882 24.264-48.575-66.2-33.482-19.87-13.326c-2.961-15.81-16.192-28.324-32.957-29.566-19.965-1.481-37.399 13.517-38.879 33.53-1.433 20.013 13.565 37.399 33.53 38.879zM1371.957 63.051c0-13.995-11.368-25.362-25.362-25.362h-581.185c-25.697 0-68.397 5.111-93.569 11.177l-131.111 38.545c-2.34 0.764-4.776 1.003-7.165 1.003-35.966 0-62.809-14.95-86.5-28.085-21.876-12.227-40.79-22.688-65.961-22.688h-304.874c-13.995 0-25.41 11.368-25.41 25.362v50.82c0 12.896 9.744 23.595 22.258 25.171h1276.669c12.514-1.576 22.21-12.323 22.21-25.171v-50.773z" />
<glyph unicode="&#xe92f;" glyph-name="kanu" horiz-adv-x="1159" d="M396.821 740.033c29.014 0 54.156 10.595 75.346 31.785 21.231 21.231 31.785 46.332 31.785 75.387s-10.595 54.197-31.785 75.387c-21.19 21.19-46.332 31.785-75.346 31.785-29.055 0-54.197-10.595-75.387-31.785s-31.785-46.332-31.785-75.387 10.595-54.156 31.785-75.387c21.231-21.19 46.332-31.785 75.387-31.785zM0 153.644c25.143 0 48.655 5.501 70.66 16.463 23.553 11.002 48.288 16.463 74.165 16.463s50.652-5.501 74.165-16.463c22.005-11.002 45.558-16.463 70.66-16.463 25.143 0 48.655 5.501 70.66 16.463 23.553 11.002 48.655 16.463 75.387 16.463 25.102 0 49.429-5.501 73.024-16.463 21.964-11.002 45.517-16.463 70.619-16.463 25.143 0 48.696 5.501 70.66 16.463 23.553 11.002 48.288 16.463 74.165 16.463s50.611-5.501 74.165-16.463c21.964-11.002 45.517-16.463 70.66-16.463 25.102 0 48.614 5.501 70.619 16.463 23.513 11.002 47.881 16.463 73.024 16.463 21.964 0 43.154-3.912 63.61-11.777 34.556 37.694 51.793 81.662 51.793 131.866 0 53.423-18.867 99.348-56.561 137.775s-84.026 57.702-138.916 57.702l-21.231-2.363c-7.783-29.829-21.557-52.975-41.198-69.478-19.601-16.463-38.101-26.324-55.338-29.421l-25.876-2.404h-445.069l-37.694 21.231 89.486 150.733 98.94-56.52c18.826-11.002 34.923-15.322 48.288-12.958s23.92 7.457 31.785 15.281l9.372 11.817 98.94 162.469c14.181 22.005 16.096 42.013 5.909 60.065s-25.102 26.691-44.743 25.917c-19.641-0.774-37.286-11.369-53.015-31.785l-68.297-113.040-164.833 91.85c-37.694 17.319-68.337 22.779-91.85 16.504-23.553-6.275-41.605-17.278-54.197-32.967l-16.463-25.917-129.543-219.030c-6.275-14.14-9.413-26.691-9.413-37.653 0-11.002 1.182-18.46 3.504-22.372l3.545-5.909h-63.57v-242.542zM1158.678-58.295c-25.061 0-48.614 4.686-70.579 14.099-23.553 11.043-48.329 16.504-74.205 16.504s-50.652-5.501-74.165-16.504c-22.005-9.372-45.517-14.099-70.619-14.099-25.143 0-48.696 4.686-70.66 14.099-23.553 11.043-48.288 16.504-74.165 16.504s-50.611-5.501-74.165-16.504c-21.964-9.372-45.517-14.099-70.66-14.099-25.102 0-48.655 4.686-70.619 14.099-23.553 11.043-47.881 16.504-73.024 16.504-26.691 0-51.793-5.501-75.387-16.504-22.005-9.372-45.517-14.099-70.66-14.099-25.102 0-48.655 4.686-70.66 14.099-23.553 11.043-48.288 16.504-74.165 16.504s-50.652-5.501-74.165-16.504c-22.005-9.372-45.517-14.099-70.66-14.099v105.949c25.143 0 48.655 5.501 70.66 16.463 23.553 11.043 48.288 16.504 74.165 16.504s50.652-5.501 74.165-16.504c23.553-11.002 47.514-16.463 71.842-16.463s47.473 5.501 69.478 16.463c23.553 11.043 48.655 16.504 75.387 16.504 25.102 0 49.429-5.501 73.024-16.504 21.964-11.002 45.517-16.463 70.619-16.463 25.143 0 48.696 5.501 70.66 16.463 23.553 11.043 48.288 16.504 74.165 16.504s50.611-5.501 74.165-16.504c21.964-11.002 45.517-16.463 70.66-16.463 25.102 0 48.614 5.501 70.619 16.463 23.513 11.043 47.881 16.504 73.024 16.504 25.102 0 50.204-5.501 75.387-16.504 21.964-11.002 45.517-16.463 70.579-16.463v-105.949z" />
<glyph unicode="&#xe930;" glyph-name="clock" horiz-adv-x="1020" d="M1007.846 511.277c-0.173 1.641-0.518 3.239-0.734 4.881-2.548 19.091-6.176 37.836-10.755 56.193v0.043c-30.796 123.184-106.771 228.487-209.698 296.817l-0.043 0.043c-10.539 6.954-21.38 13.519-32.437 19.696-5.701 3.196-11.576 6.090-17.363 9.027-7.127 3.628-14.34 7.127-21.639 10.453-5.874 2.635-11.748 5.226-17.752 7.645-9.2 3.758-18.573 7.127-27.989 10.28-4.19 1.382-8.163 3.023-12.396 4.319-13.39 4.146-27.081 7.559-40.903 10.539-4.708 0.993-9.459 1.814-14.21 2.721-10.582 1.987-21.294 3.628-32.092 4.924-4.578 0.561-9.157 1.123-13.778 1.555-15.16 1.382-30.364 2.332-45.87 2.332h-0.086c-15.463 0-30.753-0.907-45.87-2.332-4.622-0.432-9.2-0.993-13.778-1.555-10.798-1.296-21.467-2.937-32.092-4.924-4.708-0.907-9.545-1.684-14.21-2.721-13.865-2.98-27.557-6.392-40.946-10.539-4.19-1.253-8.207-2.894-12.353-4.319-9.459-3.153-18.832-6.522-28.032-10.28-6.004-2.376-11.878-5.010-17.752-7.602-7.299-3.369-14.513-6.868-21.639-10.496-5.831-2.937-11.662-5.788-17.363-9.027-11.057-6.176-21.898-12.698-32.437-19.696l-0.043-0.043c-102.97-68.33-178.945-173.633-209.741-296.817v-0.043c-4.578-18.357-8.25-37.059-10.755-56.193-0.216-1.641-0.561-3.239-0.777-4.881-2.376-19.825-3.974-39.866-3.974-60.296 0-276.689 225.074-501.72 501.72-501.72h0.043c276.646 0 501.72 225.031 501.72 501.72 0.043 20.43-1.555 40.471-3.974 60.296zM555.149 22.557l0.043 33.172c0.216 21.121-15.463 37.145-36.627 37.448-21.164 0.216-37.188-15.42-37.491-36.584l-0.432-35.115c-204.947 13.951-370.762 171.646-397.325 372.964l34.295-0.086c21.121-0.216 37.145 15.463 37.448 36.627 0.216 21.164-15.42 37.188-36.584 37.491l-38.441 0.475c0.302 5.658 0.432 11.403 0.864 17.018 0.907 9.891 2.116 19.696 3.585 29.457 0 0 1.814 11.964 5.399 30.148 27.557 122.45 107.117 225.463 214.492 284.032 1.598 0.821 2.592 1.296 2.937 1.425 0.432 0.259 0.907 0.432 1.339 0.691 13.649 7.256 27.816 13.606 42.285 19.393 3.801 1.512 7.731 2.807 11.619 4.276 11.144 4.103 22.46 7.731 33.992 10.884 4.924 1.253 9.934 2.592 14.944 3.758 11.273 2.678 22.719 4.751 34.295 6.479 4.881 0.777 9.718 1.684 14.642 2.246 6.695 0.821 13.606 0.777 20.43 1.253l0.259-21.682c0.302-21.121 16.327-36.8 37.491-36.584 21.078 0.302 36.843 16.327 36.627 37.448l-0.043 19.825c1.555-0.173 3.153-0.13 4.665-0.302 4.924-0.561 9.761-1.469 14.642-2.246 11.619-1.728 23.021-3.844 34.295-6.479 5.010-1.166 9.934-2.505 14.944-3.844 11.532-3.153 22.849-6.781 33.949-10.884 3.887-1.425 7.818-2.721 11.619-4.276 14.469-5.788 28.636-12.137 42.285-19.393 0.475-0.259 0.907-0.432 1.339-0.691 0.346-0.13 1.339-0.648 2.894-1.425 107.333-58.569 186.893-161.539 214.492-283.945 3.628-18.27 5.442-30.235 5.442-30.235 1.469-9.761 2.678-19.566 3.585-29.457 0.648-8.034 0.907-16.154 1.209-24.274l-36.368-0.432c-21.121-0.302-36.8-16.327-36.584-37.491 0.302-21.121 16.327-36.843 37.448-36.627l30.839 0.043c-28.852-192.68-185.424-344.112-380.739-364.499zM712.282 660.765l-219.416-219.416-94.764 94.764c-14.944 14.988-37.404 14.988-52.349 0s-14.944-37.404 0-52.349l119.686-124.653c7.515-7.515 17.45-9.977 27.427-9.977s19.955 4.967 27.427 12.483l244.381 246.8c14.944 14.988 14.944 37.404 0 52.392-15.031 14.901-37.491 14.901-52.392-0.043z" />
<glyph unicode="&#xe931;" glyph-name="hchsterPunkt" horiz-adv-x="1212" d="M1184.673 11.292l-53.562 53.577-46.601 48.912c0 0-18.615 30.269-20.94 39.598-2.339 9.329-9.315 25.605-16.304 46.573-6.975 20.968-11.64 32.622-23.279 53.577-11.654 20.968-16.304 34.933-34.933 58.227s-39.612 48.926-65.216 60.566-58.213 2.325-74.531 0c-16.304-2.339-16.304-2.339-46.587-23.294-30.255-20.954-9.301-16.304-48.912-30.269-39.598-13.965-27.944-32.594-53.562-16.29-25.605 16.29-27.944 32.594-58.227 58.227-30.269 25.619-51.237 48.912-62.877 62.877-11.668 13.965-25.633 46.587-41.951 62.891-16.276 16.29-51.237 41.923-90.821 41.923-6.045 0-11.837-0.282-17.488-0.662v165.493h143.2l10.245-51.139h178.993v255.736h-143.2l-10.245 51.153h-230.145v-429.965c-5.792-1.705-10.287-3.34-12.866-4.636-9.315-4.664-44.262-48.926-44.262-48.926s-58.227-69.867-74.531-90.821-32.594-41.937-41.923-60.552c-9.315-18.629-13.979-30.283-27.944-55.902-13.979-25.605-34.933-67.527-51.237-95.471s-23.294-39.626-37.272-65.23-6.989-23.294-39.598-65.216c-32.608-41.923-34.271-83.845-34.271-83.845h1182.461l-11.612 62.891zM486.107 266.915c-19.235 38.343-52.886 82.493-69.12 84.212-1.001-0.197-4.495-3.467-5.101-4.199-45.953-57.452-183.516-287.682-184.488-289.725l-50.998 23.998c4.016 8.54 141.41 238.333 191.478 300.914 14.684 18.361 34.285 27.239 55.056 25.041 54.929-5.82 100.826-89.524 113.593-115.030l-50.42-25.21z" />
<glyph unicode="&#xe932;" glyph-name="baumitti" horiz-adv-x="1141" d="M1107.061 752.969l-529.356 203.312c-12.397 4.959-24.794 4.959-37.191 0l-507.041-195.874c-26.034-9.918-39.671-39.671-29.753-66.944 9.918-26.034 39.671-39.671 66.944-29.753l488.446 189.676 290.092-111.574v-514.479c0-28.513 23.554-52.068 52.068-52.068s52.068 23.554 52.068 52.068v474.809l119.012-45.869c6.199-2.479 12.397-3.719 18.596-3.719 21.075 0 40.91 12.397 48.349 33.472 7.438 26.034-4.959 55.787-32.232 66.944zM634.731 408.329c0 0 79.341 146.286-76.862 199.593 0 0 110.334-164.881-32.232-194.634 0 0 17.356 28.513-100.416 28.513v0c-1.24 0-2.479 0-2.479 0-1.24 0-1.24 0-2.479 0v0c-117.772 0-100.416-28.513-100.416-28.513-142.567 29.753-32.232 194.634-32.232 194.634-156.203-54.547-76.862-199.593-76.862-199.593-86.78 28.513-146.286-60.746-146.286-60.746 117.772-128.93 178.518-48.349 178.518-48.349l55.787-100.416c63.225-109.094-32.232-68.184-23.554-176.039 8.678-109.094 133.889-89.259 136.368-78.102 2.479 7.438 6.199 8.678 9.918 8.678s7.438-1.24 9.918-8.678c2.479-11.157 127.69-29.753 136.368 78.102s-86.78 66.944-23.554 176.039l55.787 100.416c0 0 60.746-81.821 178.518 48.349 0 0-58.266 89.259-143.806 60.746zM350.838 237.249c-12.397 1.24-22.315 4.959-28.513 11.157-19.835 17.356-16.116 48.349-16.116 48.349 11.157-1.24 19.835-4.959 26.034-8.678 28.513-16.116 18.596-50.828 18.596-50.828zM493.404 237.249c0 0-2.479 7.438-2.479 17.356 0 16.116 8.678 38.431 45.869 42.15 0 0 0-3.719 0-8.678 0-16.116-6.199-48.349-43.39-50.828z" />
<glyph unicode="&#xe933;" glyph-name="campingpl" d="M912.696 480.278c1.113-10.017 1.113-21.148 1.113-32.278 0-221.496-180.313-402.922-402.922-402.922-220.383 0-401.809 181.426-401.809 402.922s181.426 402.922 402.922 402.922c34.504 0 69.009-4.452 101.287-13.357l31.165 104.626c-42.296 11.13-86.817 17.809-132.452 17.809-282.713 0-512-229.287-512-512s229.287-512 512-512 512 229.287 512 512c0 11.13-1.113 21.148-1.113 32.278 0 0-110.191 0-110.191 0zM239.304 285.496h516.452l-261.565 448.557z" />
<glyph unicode="&#xe934;" glyph-name="ferienhaus" horiz-adv-x="988" d="M178.18 122.767h-118.071v148.126c0 9.66-8.587 18.247-18.247 18.247s-18.247-8.587-18.247-18.247v-166.373c0-9.66 8.587-18.247 18.247-18.247h12.881c0-1.073-1.073-2.147-1.073-3.22v-104.117c0-6.44 5.367-10.734 10.734-10.734s10.734 5.367 10.734 10.734v104.117c0 1.073-1.073 2.147-1.073 3.22h66.549c0-1.073-1.073-2.147-1.073-3.22v-104.117c0-6.44 5.367-10.734 10.734-10.734 6.44 0 10.734 5.367 10.734 10.734v104.117c0 1.073-1.073 2.147-1.073 3.22h18.247c9.66 0 18.247 8.587 18.247 18.247s-8.587 18.247-18.247 18.247zM940.277 564.998h-2.147c-12.881 0-23.614-10.734-23.614-23.614v-39.715c-23.614-3.22-71.916-13.954-110.558-53.669l-7.514 10.734c-10.734 15.027-27.908 24.688-46.155 24.688h-199.648c-16.101 0-30.055-6.44-40.788-17.174v19.321c0 12.881-10.734 23.614-23.614 23.614h-4.294c-12.881 0-23.614-10.734-23.614-23.614v-218.969c0-12.881 10.734-23.614 23.614-23.614h4.294c12.881 0 23.614 10.734 23.614 23.614v55.816h404.662v-55.816c0-12.881 10.734-23.614 23.614-23.614h2.147c12.881 0 23.614 10.734 23.614 23.614v274.784c0 12.881-10.734 23.614-23.614 23.614zM509.853 434.046l5.367 10.734c6.44 12.881 20.394 21.468 35.421 21.468h198.574c12.881 0 24.688-6.44 32.201-17.174l11.807-17.174v-62.256h-283.371v64.403zM810.398 369.644v61.182c33.275 38.642 80.503 50.449 103.044 53.669v-114.851h-103.044zM704.134 187.17h-471.212c-11.807 0-22.541-9.66-22.541-22.541 0-11.807 9.66-22.541 22.541-22.541h63.329v-171.74c0-6.44 5.367-10.734 10.734-10.734h3.22c6.44 0 10.734 5.367 10.734 10.734v171.74h305.912v-171.74c0-6.44 5.367-10.734 10.734-10.734h3.22c6.44 0 10.734 5.367 10.734 10.734v171.74h52.595c11.807 0 22.541 9.66 22.541 22.541s-9.66 22.541-22.541 22.541zM677.3 700.243h38.642v236.143h-44.008c-20.394-21.468-44.008-59.036-44.008-100.897 1.073-65.476 41.862-124.512 49.375-135.245zM618.264 835.488c0 40.788 17.174 72.99 36.495 95.53h-148.126v-169.593h126.658c-8.587 21.468-15.027 46.155-15.027 74.063zM324.159 681.996h-42.935v-99.824h78.356c-12.881 51.522-31.128 92.31-35.421 99.824zM670.86 689.509v0 2.147c-1.073 1.073-19.321 24.688-33.275 59.036h-130.952v-156.713h128.805c15.027 64.403 34.348 94.457 35.421 95.53zM330.6 691.656v0-2.147c1.073-1.073 20.394-32.201 35.421-95.53h129.878v156.713h-132.025c-13.954-34.348-32.201-56.889-33.275-59.036zM715.941 582.172v99.824h-37.568c-4.294-7.514-23.614-48.302-36.495-99.824h74.063zM368.168 760.352h127.732v170.667h-150.273c19.321-22.541 37.568-54.742 36.495-95.53 1.073-27.908-5.367-52.595-13.954-75.136zM373.535 835.488c0 41.862-22.541 79.43-42.935 100.897h-49.375v-236.143h44.008c7.514 10.734 48.302 69.769 48.302 135.245z" />
<glyph unicode="&#xe935;" glyph-name="flugpl" d="M667.826 484.73l82.365 139.13c22.261 37.843 8.904 85.704-28.939 106.852-33.391 18.922-89.043-6.678-113.53-36.73l-115.757-142.47-491.965 192.557v-97.948l418.504-220.383-55.652-94.609-188.104 61.217-16.696-25.6 449.67-214.817 5.565 31.165-114.643 94.609 77.913 77.913 447.443-197.009v100.174l-356.174 225.948z" />
<glyph unicode="&#xe936;" glyph-name="hbf" d="M824.765 820.87h-625.53c-110.191 0-199.235-89.043-199.235-199.235v-347.27c0-110.191 89.043-199.235 199.235-199.235h625.53c110.191 0 199.235 89.043 199.235 199.235v347.27c0 110.191-89.043 199.235-199.235 199.235zM951.652 274.365c0-70.122-56.765-126.887-126.887-126.887h-625.53c-70.122 0-126.887 56.765-126.887 126.887v347.27c0 70.122 56.765 126.887 126.887 126.887h625.53c70.122 0 126.887-56.765 126.887-126.887v-347.27zM291.617 643.896h-135.791v-395.13h142.47c154.713 0 210.365 91.27 210.365 198.122 0 43.409-8.904 85.704-37.843 122.435-52.313 74.574-133.565 74.574-179.2 74.574zM304.974 337.809h-44.522v218.157h45.635c46.748 0 66.783-18.922 79.026-36.73 14.47-22.261 20.035-51.2 20.035-73.461 0-55.652-22.261-107.965-100.174-107.965zM804.73 461.357c33.391 17.809 47.861 48.974 47.861 79.026 0 23.374-5.565 46.748-24.487 65.67-30.052 32.278-62.33 38.957-130.226 38.957h-126.887v-395.13h129.113c69.009 0 95.722 3.339 133.565 34.504 24.487 20.035 37.843 54.539 37.843 85.704 0 15.583-1.113 69.009-66.783 91.27zM671.165 555.965h36.73c15.583 0 44.522 0 44.522-30.052 0-31.165-30.052-31.165-44.522-31.165h-36.73v61.217zM720.139 337.809h-48.974v72.348h48.974c16.696 0 52.313 0 52.313-34.504-1.113-37.843-38.957-37.843-52.313-37.843z" />
<glyph unicode="&#xe937;" glyph-name="histogeb" horiz-adv-x="965" d="M631.607 443.803l-150.033 263.344-152.131-263.344v178.361h-329.443v-686.164h329.443v252.852c0 0 50.361 87.082 151.082 87.082s151.082-87.082 151.082-87.082v-252.852h333.639v688.262h-333.639v-180.459zM631.607 360.918h-302.164v59.803h302.164v-59.803zM805.77 960l-174.164-279.082h333.639zM173.115 960l-173.115-279.082h333.639z" />
<glyph unicode="&#xe938;" glyph-name="hotel" horiz-adv-x="1060" d="M1059.708 647.847l-529.854 193.512-529.854-193.512v118.641l529.854 193.512 529.854-193.512zM1033.215 397.894v80.63c0 28.796-23.037 51.834-51.834 51.834s-51.834-23.037-51.834-51.834v-65.656c-99.060-3.456-178.538-49.53-223.46-122.097-3.456 51.834-47.226 93.3-100.211 93.3h-429.642c-21.885 0-41.467-6.911-58.745-18.43v1.152c0 32.252-26.493 58.745-58.745 58.745s-58.745-27.645-58.745-59.897v-370.898c0-32.252 26.493-58.745 58.745-58.745s58.745 26.493 58.745 58.745v86.389h813.21v-93.3c0-28.796 23.037-51.834 51.834-51.834s51.834 23.037 51.834 51.834v368.594l-1.152 41.467zM666.925 180.193h-549.435v122.097c8.063 24.189 31.1 42.619 58.745 42.619h429.642c33.404 0 61.048-27.645 61.048-61.048v-103.667zM929.548 180.193h-222.308c17.278 111.73 103.667 188.904 222.308 193.512v-193.512z" />
<glyph unicode="&#xe939;" glyph-name="info" d="M385.113 648.348h253.774v-712.348h-253.774v712.348zM512 960c-84.591 0-152.487-57.878-152.487-130.226s67.896-130.226 152.487-130.226c84.591 0 152.487 58.991 152.487 130.226s-67.896 130.226-152.487 130.226z" />
<glyph unicode="&#xe93a;" glyph-name="jugherberge" d="M514.226 961.113l-506.435-289.391v-736.835h1007.304v736.835l-500.87 289.391zM978.365-27.27h-932.73v676.73l467.478 267.13 464.139-267.13v-676.73zM312.765 171.965v0c0-3.339 0-5.565-1.113-8.904-1.113-5.565-3.339-11.13-6.678-15.583-7.791-11.13-21.148-18.922-35.617-18.922h-31.165v-81.252h28.939c82.365-1.113 130.226 53.426 133.565 116.87 0 2.226 0 4.452 0 6.678v0 421.843h-87.93v-420.73zM451.896 592.696v-427.409h86.817v183.652h134.678v-183.652h84.591v427.409h-84.591v-165.843h-134.678v165.843z" />
<glyph unicode="&#xe93b;" glyph-name="kurhaus" d="M303.861 637.217h-101.287l-115.757-168.070v168.070h-86.817v-372.87h86.817v184.765l117.983-184.765h109.078l-133.565 193.67zM566.539 413.496c0-22.261-5.565-38.957-16.696-51.2s-26.713-17.809-46.748-17.809c-15.583 0-27.826 3.339-37.843 10.017s-16.696 15.583-20.035 26.713c-3.339 11.13-5.565 22.261-5.565 32.278v223.722h-86.817v-223.722c0-24.487 4.452-46.748 12.243-65.67 7.791-20.035 18.922-35.617 32.278-48.974s30.052-22.261 46.748-28.939c17.809-6.678 36.73-10.017 55.652-10.017s37.843 3.339 56.765 10.017c17.809 6.678 34.504 16.696 48.974 28.939 14.47 13.357 25.6 28.939 34.504 48.974s12.243 41.183 12.243 65.67v223.722h-86.817l1.113-223.722zM983.93 458.017c10.017 17.809 15.583 37.843 15.583 58.991 0 18.922-4.452 36.73-12.243 52.313s-17.809 27.826-31.165 38.957c-12.243 10.017-26.713 17.809-42.296 22.261-14.47 4.452-30.052 6.678-45.635 6.678h-140.243v-372.87h86.817v138.017h40.070l71.235-136.904h97.948l-85.704 149.148c20.035 11.13 35.617 25.6 45.635 43.409zM899.339 488.070c-7.791-7.791-17.809-12.243-31.165-12.243h-54.539v86.817h54.539c13.357 0 23.374-4.452 31.165-12.243s12.243-18.922 12.243-31.165c0-13.357-4.452-23.374-12.243-31.165z" />
<glyph unicode="&#xe93c;" glyph-name="naturerlebnis" d="M982.817 557.078c0 0-61.217 38.957-111.304 31.165 0 0-5.565 25.6 13.357 35.617 0 0-57.878 6.678-92.383-22.261 0 0-23.374 11.13 1.113 23.374 0 0-43.409 3.339-76.8-11.13s-73.461-10.017-73.461-10.017 24.487 80.139 51.2 105.739 25.6 50.087 25.6 50.087-42.296-26.713-61.217-21.148c0 0-1.113 35.617 30.052 61.217s34.504 43.409 34.504 51.2c0 0-27.826-14.47-35.617-14.47-6.678 0-17.809 38.957-3.339 65.67 17.809 27.826 12.243 57.878 12.243 57.878s-96.835-20.035-105.739-53.426c0 0-15.583 6.678-5.565 23.374 0 0-44.522-12.243-75.687-82.365 0 0-24.487 8.904-14.47 31.165 0 0-35.617-11.13-36.73-61.217 0 0-6.678-6.678-6.678 11.13 0 16.696-33.391-90.157-22.261-160.278 0 0-43.409-4.452-56.765 52.313s-18.922 87.93-18.922 87.93-26.713-24.487-26.713-38.957c0 0-12.243 64.557-38.957 73.461 0 0-2.226-58.991-5.565-41.183-1.113 3.339-46.748 57.878-93.496 64.557 0 0-25.6-63.443 7.791-124.661 0 0-14.47-10.017-31.165 15.583 0 0-30.052-41.183 60.104-105.739 0 0-11.13-8.904-35.617 0 0 0 64.557-52.313 74.574-75.687s4.452-50.087 4.452-50.087-75.687 21.148-90.157 43.409l-13.357 22.261c0 0-11.13-41.183-8.904-65.67 0 0-14.47 2.226-14.47-3.339s0-21.148 6.678-23.374c0 0-97.948 5.565-107.965 1.113 0 0 75.687-75.687 83.478-100.174 0 0-20.035-47.861-43.409-58.991 0 0 128-5.565 130.226-5.565 0 0 2.226-2.226-5.565-7.791 0 0 16.696-5.565 25.6-4.452 0 0 17.809-45.635-87.93-61.217 0 0 52.313-48.974 144.696-13.357 0 0 17.809-11.13 8.904-25.6 0 0 54.539-6.678 97.948 42.296 0 0 6.678 6.678 2.226-25.6-3.339-27.826-11.13-141.357-13.357-174.748 0-5.565-1.113-10.017-1.113-15.583-3.339-26.713 0-112.417 20.035-113.53 41.183-3.339 33.391 65.67 31.165 179.2s12.243 145.809 18.922 134.678c7.791-11.13 40.070-66.783 57.878-84.591l17.809-17.809c0 0 15.583 11.13 8.904 27.826 0 0 69.009-71.235 106.852-61.217 0 0-36.73 62.33-15.583 105.739 0 0 43.409-86.817 96.835-83.478 0 0 3.339 36.73 0 42.296l11.13-3.339v15.583l41.183-1.113-7.791 13.357 94.609-3.339c0 0-92.383 64.557-93.496 125.774l28.939 6.678c0 0-107.965 26.713-115.757 45.635 0 0 13.357 38.957 152.487 26.713 0 0 3.339 26.713-17.809 32.278 0 0 5.565 24.487 70.122 14.47 0 0-20.035 21.148-21.148 31.165 0 0 101.287 41.183 114.643 74.574zM437.426 324.452c0-1.113-1.113-3.339-2.226-3.339-1.113-1.113-2.226-1.113-4.452-1.113 0 0-1.113 0-1.113 0-3.339 1.113-5.565 4.452-5.565 7.791 0 2.226 3.339 14.47 6.678 33.391-12.243 36.73-93.496 111.304-94.609 112.417-2.226 2.226-3.339 6.678 0 8.904 0 0 0 0 0 0s0 0 0 0c2.226 2.226 6.678 3.339 8.904 0 3.339-2.226 65.67-60.104 90.157-101.287 6.678 30.052 15.583 67.896 26.713 106.852 0 0 0 0 0 0 1.113 24.487-50.087 73.461-70.122 89.043-2.226 2.226-3.339 6.678-1.113 8.904 0 0 0 0 0 0s0 0 0 0c2.226 2.226 6.678 3.339 8.904 1.113 6.678-5.565 52.313-43.409 69.009-76.8 11.13 38.957 23.374 75.687 36.73 103.513 36.73 77.913 60.104 154.713 60.104 154.713s0 0 0 0v0c1.113 3.339 4.452 5.565 7.791 4.452s5.565-4.452 4.452-7.791c0-1.113-23.374-77.913-60.104-156.939-38.957-84.591-79.026-281.6-80.139-283.826zM574.33 450.226c-1.113 0-77.913-32.278-101.287-77.913-1.113-2.226-3.339-3.339-5.565-3.339-1.113 0-2.226 0-3.339 1.113-3.339 1.113-4.452 4.452-3.339 7.791 0 0 0 0 0 1.113 25.6 50.087 104.626 82.365 107.965 83.478s6.678 0 8.904-3.339c0 0 0 0 0 0s0 0 0 0c2.226-4.452 0-7.791-3.339-8.904zM539.826 523.687c-1.113-1.113-3.339-2.226-4.452-2.226-2.226 0-3.339 1.113-4.452 2.226s-2.226 3.339-2.226 4.452c0 1.113 1.113 3.339 2.226 4.452 20.035 18.922 51.2 50.087 54.539 53.426l4.452-4.452 6.678 2.226c2.226-4.452 2.226-4.452-56.765-60.104z" />
<glyph unicode="&#xe93d;" glyph-name="randlage" d="M442.991-58.435c-1.113 0-1.113 0-2.226 0v0c-211.478 21.148-329.461 145.809-387.339 266.017-1.113 1.113-2.226 3.339-2.226 4.452-1.113 3.339-2.226 5.565-3.339 8.904-25.6 52.313-37.843 102.4-42.296 141.357v0c0 0 0 1.113 0 1.113l111.304 11.13c0-3.339 2.226-22.261 10.017-48.974 0-1.113 0-2.226 1.113-2.226 0-2.226 1.113-3.339 2.226-5.565 25.6-85.704 103.513-243.757 323.896-264.904l-11.13-111.304zM122.435 525.913c0-1.113 0-2.226 0-2.226l-111.304 11.13c0 0 0 0 0 0 13.357 133.565 119.096 391.791 431.861 421.843v0c1.113 0 1.113 0 2.226 0l4.452-55.652 6.678-55.652c-294.957-27.826-331.687-296.070-333.913-319.443zM1015.096 360.070c-5.565-55.652-27.826-132.452-74.574-205.913-2.226-3.339-4.452-6.678-6.678-10.017-1.113-2.226-2.226-3.339-3.339-5.565-65.67-96.835-175.861-183.652-348.383-200.348v0c0 0-1.113 0-1.113 0l-11.13 111.304c186.991 18.922 269.357 133.565 306.087 220.383 0 1.113 1.113 1.113 1.113 2.226 1.113 3.339 2.226 6.678 3.339 10.017 17.809 47.861 22.261 86.817 23.374 90.157l111.304-11.13c0 0 0 0 0-1.113v0zM1018.435 535.93l-111.304-11.13c-1.113 12.243-36.73 292.73-335.026 321.67l11.13 111.304c1.113 0 1.113 0 1.113 0v0c312.765-31.165 420.73-289.391 434.087-421.843v0c0 0 0 0 0 0z" />
<glyph unicode="&#xe93e;" glyph-name="schwimmbad" d="M437.426 591.583c56.765 0 103.513 45.635 103.513 102.4s-45.635 102.4-103.513 102.4c-56.765 0-102.4-45.635-102.4-102.4 0-55.652 45.635-102.4 102.4-102.4zM902.678 348.939c-21.148 10.017-43.409 21.148-93.496 21.148-47.861 0-70.122-10.017-90.157-20.035-17.809-7.791-34.504-15.583-63.443-15.583-31.165 0-50.087 7.791-69.009 14.47-20.035 7.791-40.070 15.583-74.574 15.583-35.617 0-57.878-7.791-79.026-15.583-20.035-6.678-40.070-14.47-69.009-14.47-30.052 0-50.087 7.791-70.122 14.47-21.148 7.791-40.070 15.583-71.235 14.47-28.939 0-47.861-6.678-66.783-13.357-22.261-7.791-44.522-15.583-83.478-15.583-25.6 0-51.2 4.452-72.348 10.017v-110.191c21.148-5.565 46.748-11.13 72.348-11.13 36.73 0 57.878 7.791 79.026 14.47 20.035 6.678 40.070 14.47 71.235 14.47 33.391 1.113 55.652-7.791 76.8-15.583 18.922-7.791 37.843-14.47 64.557-14.47s45.635 6.678 64.557 13.357c22.261 7.791 45.635 16.696 83.478 16.696s58.991-8.904 80.139-16.696c18.922-7.791 35.617-14.47 63.443-14.47 25.6 0 40.070 6.678 57.878 14.47 21.148 12.243 44.522 23.374 95.722 23.374 52.313 0 76.8-12.243 97.948-22.261 15.583-7.791 28.939-14.47 51.2-14.47 27.826 0 47.861 10.017 64.557 20.035v109.078c-16.696-8.904-37.843-17.809-64.557-17.809-24.487 1.113-40.070 7.791-55.652 15.583zM151.374 486.957c20.035 6.678 40.070 14.47 71.235 14.47 33.391 1.113 55.652-7.791 76.8-15.583 18.922-6.678 37.843-14.47 64.557-14.47s44.522 6.678 64.557 13.357c22.261 7.791 45.635 16.696 83.478 16.696 16.696 0 64.557-12.243 75.687-14.47v0l173.635 174.748 142.47-140.243c22.261-22.261 57.878-22.261 80.139 0s22.261 57.878 0 80.139l-161.391 162.504c-32.278 32.278-85.704 32.278-117.983 0l-193.67-193.67h-454.122c-31.165 0-56.765-25.6-56.765-56.765v-30.052c21.148-5.565 46.748-11.13 72.348-11.13 36.73 0 57.878 7.791 79.026 14.47zM902.678 224.278c-20.035 10.017-43.409 21.148-92.383 21.148-47.861 0-70.122-10.017-90.157-20.035-17.809-7.791-34.504-15.583-63.443-15.583-31.165 0-50.087 7.791-69.009 14.47-20.035 7.791-40.070 15.583-74.574 15.583-35.617 0-57.878-7.791-79.026-15.583-20.035-6.678-40.070-14.47-69.009-14.47-30.052 0-50.087 7.791-70.122 14.47-21.148 7.791-40.070 15.583-71.235 14.47-28.939 0-47.861-6.678-66.783-13.357-22.261-7.791-44.522-15.583-83.478-15.583-25.6 0-51.2 4.452-72.348 10.017v-110.191c21.148-5.565 46.748-11.13 72.348-11.13 36.73 0 57.878 7.791 79.026 14.47 20.035 6.678 40.070 14.47 71.235 14.47 33.391 1.113 55.652-7.791 76.8-15.583 18.922-7.791 37.843-14.47 64.557-14.47s45.635 6.678 64.557 13.357c22.261 7.791 45.635 16.696 83.478 16.696s58.991-8.904 80.139-16.696c18.922-7.791 35.617-14.47 63.443-14.47 25.6 0 40.070 6.678 57.878 14.47 21.148 10.017 45.635 21.148 96.835 21.148 52.313 0 76.8-12.243 97.948-22.261 15.583-7.791 28.939-14.47 51.2-14.47 27.826 0 47.861 10.017 64.557 18.922v109.078c-16.696-8.904-37.843-17.809-64.557-17.809-26.713 3.339-42.296 11.13-57.878 18.922zM959.443 459.13c-25.6 0-41.183 7.791-56.765 15.583-20.035 10.017-43.409 21.148-92.383 21.148-47.861 0-70.122-10.017-90.157-20.035-18.922-8.904-35.617-16.696-64.557-16.696-31.165 0-50.087 7.791-69.009 14.47-18.922 7.791-38.957 15.583-74.574 15.583s-57.878-7.791-79.026-15.583c-20.035-6.678-40.070-14.47-69.009-14.47-30.052 0-50.087 7.791-70.122 14.47-21.148 7.791-40.070 15.583-71.235 14.47-28.939-1.113-47.861-6.678-66.783-13.357-22.261-7.791-44.522-15.583-83.478-15.583-25.6 0-51.2 4.452-72.348 10.017v-110.191c21.148-6.678 46.748-11.13 72.348-11.13 36.73 0 57.878 7.791 79.026 14.47 20.035 6.678 40.070 14.47 71.235 14.47 33.391 1.113 55.652-7.791 76.8-15.583 18.922-7.791 37.843-14.47 64.557-14.47s45.635 6.678 64.557 13.357c22.261 7.791 45.635 16.696 83.478 16.696s58.991-8.904 80.139-16.696c17.809-6.678 35.617-14.47 63.443-14.47 25.6 0 40.070 6.678 57.878 14.47 21.148 10.017 45.635 21.148 96.835 21.148 52.313 0 76.8-12.243 97.948-22.261 15.583-7.791 28.939-14.47 51.2-14.47 27.826 0 47.861 10.017 64.557 20.035v109.078c-16.696-6.678-37.843-14.47-64.557-14.47z" />
<glyph unicode="&#xe93f;" glyph-name="weserfae" d="M734.609 315.548c-6.678 10.017-41.183 11.13-54.539 4.452s-35.617-8.904-8.904 23.374c26.713 32.278 25.6 105.739 25.6 105.739h-71.235l-36.73 71.235h-102.4v95.722h-70.122l-26.713-53.426h-75.687v79.026l-8.904-3.339-27.826-75.687h-15.583l-26.713-42.296h-60.104l-34.504-71.235h-111.304c67.896-61.217 70.122-96.835 70.122-96.835s-41.183 5.565-62.33-7.791c-14.47-8.904-28.939-12.243-35.617-14.47v-63.443c27.826 3.339 36.73 28.939 67.896 28.939 33.391 0 40.070-26.713 93.496-26.713s44.522 23.374 83.478 23.374 35.617-27.826 80.139-27.826c45.635 0 55.652 25.6 95.722 25.6 38.957 0 52.313-28.939 73.461-28.939s35.617 7.791 51.2 20.035c15.583 12.243 28.939 8.904 47.861-1.113s46.748-32.278 83.478-23.374c36.73 8.904 45.635 23.374 65.67 32.278 18.922 10.017-2.226 16.696-8.904 26.713zM156.939 449.113l27.826 55.652h58.991l26.713 42.296h110.191l-21.148-42.296h219.27l28.939-55.652h-450.783zM911.583 449.113c0 0-25.6-23.374-31.165-36.73s-46.748-12.243-53.426-12.243-23.374-20.035-41.183-30.052c-17.809-11.13-6.678-27.826 0-28.939s30.052-13.357 18.922-20.035c-12.243-5.565-43.409 10.017-38.957-8.904s79.026-45.635 103.513-51.2c18.922-4.452 86.817-34.504 154.713-50.087v238.191h-112.417zM986.157 316.661h-126.887v25.6h126.887v-25.6z" />
<glyph unicode="&#xe940;" glyph-name="whirlpool" d="M926.052 676.174c38.957 0 70.122-31.165 70.122-70.122s-31.165-70.122-70.122-70.122c-38.957 0-70.122 31.165-70.122 70.122 0 37.843 31.165 70.122 70.122 70.122zM520.904 804.174c35.617 0 64.557-28.939 64.557-64.557s-28.939-64.557-64.557-64.557c-35.617 0-64.557 28.939-64.557 64.557s28.939 64.557 64.557 64.557zM100.174 676.174c38.957 0 70.122-31.165 70.122-70.122s-31.165-70.122-70.122-70.122c-38.957 0-70.122 31.165-70.122 70.122 0 37.843 31.165 70.122 70.122 70.122zM234.852 279.93c-20.035 0-36.73 16.696-36.73 36.73s16.696 36.73 36.73 36.73c20.035 0 36.73-16.696 36.73-36.73s-16.696-36.73-36.73-36.73zM470.817 235.409c-20.035 0-36.73 16.696-36.73 36.73s16.696 35.617 36.73 35.617c20.035 0 36.73-16.696 36.73-35.617s-16.696-36.73-36.73-36.73zM516.452 321.113c-15.583 0-28.939 10.017-33.391 23.374-5.565-3.339-12.243-5.565-18.922-5.565-20.035 0-36.73 16.696-36.73 36.73s16.696 35.617 36.73 35.617c15.583 0 28.939-10.017 33.391-23.374 5.565 3.339 12.243 5.565 18.922 5.565 20.035 0 36.73-16.696 36.73-36.73s-16.696-35.617-36.73-35.617zM626.643 337.809c-20.035 0-36.73 16.696-36.73 36.73s16.696 35.617 36.73 35.617c20.035 0 36.73-16.696 36.73-35.617-1.113-20.035-16.696-36.73-36.73-36.73zM719.026 265.461c-20.035 0-36.73 16.696-36.73 36.73s16.696 36.73 36.73 36.73c20.035 0 35.617-16.696 35.617-36.73s-15.583-36.73-35.617-36.73zM301.635 427.965c-3.339-10.017-13.357-16.696-24.487-16.696-7.791 0-14.47 3.339-18.922 8.904 0 5.565-2.226 12.243-6.678 16.696 0 13.357 12.243 24.487 25.6 24.487 8.904 0 16.696-4.452 21.148-11.13 0 0 3.339 4.452 8.904 6.678-6.678 10.017-17.809 15.583-28.939 15.583-16.696 0-30.052-11.13-34.504-26.713-5.565 4.452-13.357 6.678-20.035 6.678-20.035 0-36.73-16.696-36.73-36.73s16.696-36.73 36.73-36.73c16.696 0 30.052 11.13 34.504 26.713 5.565-4.452 13.357-6.678 20.035-6.678 14.47 0 26.713 8.904 33.391 21.148-5.565 3.339-10.017 7.791-10.017 7.791zM248.209 415.722c0-13.357-12.243-24.487-25.6-24.487-14.47 0-25.6 11.13-25.6 25.6s11.13 25.6 25.6 25.6c7.791 0 14.47-3.339 18.922-8.904 4.452-4.452 6.678-11.13 6.678-17.809 0 0 0 0 0 0zM545.391 470.261c0 10.017-10.017 20.035-21.148 20.035-12.243 1.113-23.374-8.904-24.487-21.148-5.565 0-10.017 0-10.017 0 1.113 17.809 16.696 31.165 34.504 30.052 16.696-1.113 28.939-14.47 30.052-31.165 1.113 1.113-3.339 2.226-8.904 2.226zM416.278 464.696c-4.452-1.113-7.791-2.226-7.791-2.226-2.226 15.583 7.791 28.939 21.148 31.165s25.6-6.678 28.939-20.035c0 0-3.339 0-7.791-1.113-2.226 8.904-11.13 14.47-20.035 13.357s-15.583-11.13-14.47-21.148zM576.557 466.922c-4.452 1.113-8.904 1.113-8.904 1.113 4.452 15.583 20.035 25.6 35.617 21.148 14.47-3.339 23.374-17.809 22.261-32.278 0 0-3.339 1.113-8.904 2.226 1.113 8.904-5.565 18.922-15.583 21.148-10.017 3.339-21.148-3.339-24.487-13.357zM978.365 430.191c0 2.226 1.113 5.565 1.113 7.791 4.452 33.391-2.226 65.67-45.635 75.687-33.391 7.791-58.991-1.113-73.461-25.6-52.313 17.809-114.643 31.165-184.765 38.957v50.087c0 47.861-38.957 86.817-86.817 86.817h-136.904c-47.861 0-86.817-38.957-86.817-86.817v-47.861c-75.687-7.791-143.583-22.261-200.348-41.183-14.47 24.487-41.183 32.278-73.461 24.487-43.409-10.017-48.974-42.296-45.635-75.687 0-2.226 0-4.452 1.113-6.678-30.052-21.148-46.748-46.748-46.748-74.574v-66.783c0-109.078 229.287-197.009 512-197.009s512 87.93 512 197.009v0 66.783c0 26.713-16.696 52.313-45.635 74.574zM976.139 409.043c3.339-3.339 6.678-6.678 10.017-10.017-2.226 1.113-5.565 1.113-7.791 1.113-1.113 0-2.226 0-3.339 0 0 3.339 0 5.565 1.113 8.904zM601.043 576c0 3.339 3.339 6.678 6.678 6.678s6.678-3.339 6.678-6.678v0-40.070c-4.452 0-8.904 0-13.357 1.113v38.957zM421.843 576c0 3.339 3.339 6.678 6.678 6.678s6.678-3.339 6.678-6.678v0-38.957c-4.452 0-8.904 0-13.357-1.113v40.070zM77.913 356.73c0-4.452-1.113-8.904-3.339-12.243-5.565-10.017-18.922-16.696-32.278-11.13-6.678 2.226-12.243 7.791-14.47 14.47-6.678 17.809 6.678 35.617 24.487 35.617 1.113 0 1.113 0 2.226 0 12.243-2.226 23.374-13.357 23.374-26.713zM50.087 410.157c1.113-5.565 2.226-12.243 2.226-17.809 0 0 0 0 0 0-10.017 0-20.035-4.452-26.713-11.13 5.565 10.017 13.357 20.035 24.487 28.939zM995.061 323.339c-18.922-28.939-63.443-56.765-126.887-79.026-94.609-33.391-221.496-52.313-356.174-52.313s-261.565 18.922-356.174 52.313c-63.443 22.261-107.965 50.087-126.887 79.026-2.226 3.339-4.452 6.678-5.565 11.13 6.678-7.791 16.696-13.357 27.826-13.357 15.583 0 28.939 10.017 34.504 24.487 2.226 0 4.452 1.113 5.565 1.113 10.017 0 17.809-4.452 23.374-11.13 2.226 0 5.565 0 8.904 1.113 4.452 12.243 15.583 21.148 28.939 21.148 5.565 0 10.017-1.113 14.47-3.339 16.696 13.357 23.374 28.939 23.374 28.939s-6.678 36.73-15.583 82.365c-1.113 3.339-2.226 6.678-2.226 10.017 55.652 17.809 121.322 31.165 192.557 38.957v-14.47c-14.47-1.113-27.826-12.243-31.165-26.713 2.226 0 3.339 1.113 5.565 1.113s3.339 0 5.565 0c3.339 7.791 11.13 14.47 20.035 15.583h2.226c14.47 1.113 26.713-8.904 27.826-23.374 1.113-15.583-11.13-27.826-25.6-27.826-2.226 0-3.339 0-5.565 0-1.113-3.339-3.339-6.678-6.678-8.904 7.791-2.226 15.583-2.226 24.487 1.113 10.017 3.339 17.809 12.243 21.148 21.148s2.226 17.809-1.113 25.6c1.113 12.243 8.904 22.261 18.922 26.713v15.583c4.452 0 8.904 0 13.357 1.113v-17.809c1.113 0 1.113 0 2.226 0 10.017-2.226 18.922-8.904 23.374-17.809 5.565 6.678 14.47 12.243 24.487 12.243 3.339 0 6.678-1.113 10.017-2.226 0 0 12.243 21.148 41.183 13.357 8.904-2.226 16.696-8.904 20.035-17.809 1.113-3.339 2.226-5.565 2.226-7.791 0-3.339 5.565-4.452 7.791 0 5.565 11.13 17.809 18.922 31.165 18.922 1.113 0 2.226 0 3.339 0v16.696c4.452 0 8.904 0 13.357-1.113v-20.035c1.113-1.113 2.226-2.226 4.452-2.226 7.791-6.678 13.357-16.696 13.357-27.826 0-1.113 0-2.226 0-3.339h7.791c6.678 7.791 16.696 13.357 27.826 13.357 3.339 0 6.678 0 10.017-1.113v34.504c65.67-7.791 124.661-21.148 176.974-37.843-1.113-3.339-2.226-6.678-2.226-10.017-5.565-24.487-8.904-46.748-12.243-62.33-3.339 16.696-17.809 30.052-35.617 30.052-4.452 14.47-17.809 25.6-34.504 25.6-1.113 0-2.226 0-3.339 0v0c1.113 12.243-5.565 24.487-16.696 31.165-27.826 15.583-55.652-4.452-55.652-31.165 0-20.035 16.696-36.73 36.73-36.73 1.113 0 2.226 0 3.339 0 0 0 0 0 0 0 0-10.017 4.452-20.035 11.13-26.713 0 0 4.452 5.565 7.791 6.678-5.565 4.452-8.904 11.13-8.904 18.922 0 1.113 0 2.226 0 3.339 1.113 11.13 10.017 20.035 21.148 22.261 1.113 0 3.339 0 4.452 0 11.13 0 20.035-6.678 24.487-16.696 1.113-2.226 2.226-5.565 2.226-8.904 0 0 0 0 0 0s0-1.113 0-1.113c1.113 0 1.113 0 2.226 1.113 2.226 0 4.452 1.113 6.678 1.113 1.113 0 1.113 0 2.226 0 15.583-1.113 27.826-16.696 22.261-33.391-2.226-6.678-6.678-12.243-13.357-14.47-8.904-4.452-16.696-3.339-23.374 0-2.226-4.452-6.678-8.904-6.678-8.904 5.565-3.339 11.13-4.452 17.809-4.452 14.47 0 26.713 8.904 32.278 21.148 1.113-2.226 3.339-6.678 7.791-13.357 5.565 4.452 12.243 6.678 20.035 6.678 18.922 0 34.504-15.583 34.504-34.504 0-1.113 0-2.226 0-3.339 1.113 0 1.113 0 2.226 0 12.243-1.113 22.261-1.113 31.165 1.113 0 8.904 4.452 17.809 10.017 24.487 2.226-17.809 17.809-32.278 35.617-32.278 8.904 0 17.809 3.339 23.374 8.904-1.113-5.565-3.339-10.017-5.565-14.47zM754.643 453.565c-10.017-4.452-17.809-12.243-21.148-22.261-7.791-1.113-15.583 0-24.487 8.904-2.226 3.339-4.452 6.678-5.565 11.13-3.339 16.696 8.904 31.165 25.6 31.165 15.583 0 27.826-13.357 25.6-28.939zM1001.739 354.504c-2.226-6.678-7.791-12.243-14.47-14.47-17.809-6.678-34.504 6.678-34.504 24.487 0 1.113 0 2.226 0 4.452 2.226 11.13 10.017 18.922 21.148 21.148 1.113 0 3.339 0 4.452 0 16.696 0 30.052-17.809 23.374-35.617z" />
<glyph unicode="&#xe941;" glyph-name="book" horiz-adv-x="975" d="M967.89 889.863c-7.014 7.014-14.027 7.014-21.041 0l-455.89-217.425-455.89 217.425c-7.014 0-14.027 0-21.041 0-7.014-7.014-14.027-14.027-14.027-21.041v-687.342c0-7.014 7.014-14.027 14.027-21.041l462.904-224.438c0 0 7.014 0 7.014 0s7.014 0 7.014 0l462.904 224.438c7.014 7.014 14.027 14.027 14.027 21.041v687.342c7.014 7.014 0 14.027 0 21.041zM932.822 195.507l-441.863-210.411-441.863 210.411v638.247l434.849-203.397c7.014 0 14.027 0 21.041 0l434.849 203.397v-638.247zM490.959 735.562l385.753 182.356c14.027 7.014 14.027 21.041 7.014 28.055-7.014 14.027-21.041 14.027-28.055 14.027l-364.712-175.342-371.726 175.342c-7.014 0-21.041 0-28.055-14.027s0-21.041 7.014-28.055l392.767-182.356z" />
<glyph unicode="&#xe942;" glyph-name="schneeflocke" d="M1024 476.285h-105.681l89.376 89.376-39.997 39.997-129.375-129.375h-35.506l33.277 33.277-39.997 39.997-73.281-73.275h-55.928c-4.067 22.426-12.868 43.195-25.36 61.23l39.54 39.54h103.637v56.575h-47.062l25.102 25.108h182.975v56.575h-126.4l74.724 74.724-39.999 39.997-74.722-74.724v126.402h-56.575v-182.975l-25.108-25.108v47.058h-56.575v-103.633l-39.54-39.54c-18.039 12.492-38.806 21.289-61.23 25.362v55.93l73.275 73.275-40.004 39.999-33.275-33.267v35.508l129.373 129.375-39.997 39.997-89.376-89.37v105.675h-56.573v-105.683l-89.378 89.378-40.004-39.997 129.38-129.382v-35.5l-33.271 33.271-40.004-39.997 73.275-73.281v-55.924c-22.426-4.069-43.195-12.87-61.23-25.362l-39.546 39.546v103.629h-56.575v-47.054l-25.102 25.096v182.973h-56.575v-126.4l-74.726 74.724-40.004-39.997 74.722-74.724h-126.392v-56.575h182.966l25.108-25.108h-47.058v-56.575h103.633l39.54-39.54c-12.492-18.035-21.289-38.804-25.362-61.23h-55.93l-73.271 73.275-40.004-39.997 33.271-33.277h-35.498l-129.382 129.375-40.004-39.997 89.376-89.376h-105.675v-56.573h105.675l-89.376-89.378 40.004-39.995 129.382 129.373h35.5l-33.277-33.279 40.004-39.999 73.275 73.275h55.93c4.069-22.424 12.87-43.191 25.362-61.23l-39.54-39.538h-103.633v-56.573h47.058l-25.108-25.112h-182.966v-56.573h126.392l-74.722-74.722 40.004-39.999 74.724 74.724v-126.4h56.575v182.975l25.102 25.104v-47.058h56.575v103.631l39.546 39.546c18.035-12.49 38.804-21.287 61.23-25.36v-55.922l-73.275-73.281 40.004-39.997 33.271 33.265v-35.5l-129.38-129.382 40.004-39.997 89.376 89.376v-105.681h56.575v105.675l89.374-89.376 39.995 39.999-129.375 129.38v35.502l33.279-33.277 39.995 39.995-73.275 73.279v55.932c22.428 4.067 43.193 12.866 61.23 25.362l39.542-39.542v-103.635h56.575v47.062l25.108-25.112v-182.969h56.575v126.404l74.722-74.724 39.999 39.999-74.724 74.722h126.4v56.577h-182.975l-25.104 25.108h47.064v56.577h-103.639l-39.538 39.538c12.492 18.037 21.287 38.802 25.36 61.23h55.928l73.275-73.275 39.999 39.995-33.279 33.279h35.506l129.375-129.375 39.999 39.995-89.372 89.374h105.681v56.579h0.010z" />
<glyph unicode="&#xe943;" glyph-name="whatsapp-logo" d="M1024 461.187c0-275.49-225.041-498.813-502.693-498.813-88.144 0-170.951 22.528-242.995 62.066l-278.312-88.439 90.738 267.628c-45.773 75.162-72.135 163.317-72.135 257.559 0 275.49 225.064 498.813 502.704 498.813 277.675 0 502.693-223.323 502.693-498.813zM521.307 880.56c-233.062 0-422.639-188.132-422.639-419.374 0-91.762 29.912-176.742 80.509-245.874l-52.804-155.75 162.418 51.621c66.731-43.816 146.671-69.37 232.528-69.37 233.028 0 422.639 188.109 422.639 419.351s-189.599 419.396-422.65 419.396zM775.157 346.305c-3.106 5.086-11.31 8.158-23.62 14.268-12.334 6.11-72.932 35.703-84.196 39.765-11.298 4.073-19.536 6.121-27.739-6.11-8.203-12.242-31.824-39.765-39.026-47.923-7.191-8.181-14.37-9.205-26.704-3.083-12.311 6.11-52.008 19.035-99.078 60.678-36.625 32.404-61.36 72.408-68.551 84.662-7.179 12.231-0.751 18.842 5.404 24.929 5.552 5.484 12.334 14.279 18.489 21.413 6.178 7.145 8.226 12.231 12.311 20.4 4.13 8.158 2.071 15.292-1.024 21.424-3.072 6.11-27.739 66.276-38.002 90.761-10.263 24.462-20.514 20.389-27.716 20.389-7.179 0-15.406 1.024-23.62 1.024s-21.572-3.061-32.87-15.292c-11.287-12.242-43.11-41.825-43.11-101.979 0-60.166 44.134-118.295 50.313-126.441 6.155-8.146 85.22-135.623 210.489-184.582 125.281-48.936 125.281-32.609 147.877-30.561 22.574 2.037 72.886 29.571 83.194 58.106 10.24 28.581 10.24 53.055 7.179 58.152z" />
<glyph unicode="&#xe944;" glyph-name="switch" horiz-adv-x="791" d="M572.9 682.392l-261.028 262.446c-3.382 3.401-19.526 15.162-24.842 15.162-5.329 0-16.82-8.637-20.202-12.040l-261.028-262.458c-7.734-7.776-7.734-20.399 0-28.174 3.866-3.886 13.34-10.522 18.657-10.522s16.338-2.71 20.204 1.192l217.9 228.415v-476.778c0-11.152 10.258-19.903 21.376-19.903s27.549 8.751 27.549 19.903v476.778l227.193-228.415c7.731-7.787 26.489-1.578 34.22 6.209 7.736 7.776 10.347 14.192 3.095 21.979l-3.095 6.206zM178.035 229.939l261.028-277.886c3.382-3.603 19.526-16.054 24.842-16.054 5.329 0 16.821 9.146 20.2 12.749l261.027 277.895c7.736 8.234 7.736 21.602 0 29.831-3.863 4.115-13.335 11.143-18.655 11.143-5.315 0-16.337 2.867-20.205-1.261l-217.898-241.85v504.823c0 11.809-10.259 21.071-21.378 21.071-11.116 0-27.547-9.262-27.547-21.071v-504.823l-227.194 241.85c-7.731 8.243-26.487 1.671-34.22-6.577-7.734-8.229-10.344-15.025-3.093-23.268l3.095-6.572z" />
<glyph unicode="&#xe945;" glyph-name="at" d="M782.881 61.609c-63.812-31.222-142.927-46.837-237.359-46.837-88.306 0-168.768 14.994-241.407 44.97-72.639 29.989-128.136 76.378-166.519 139.176-38.383 62.811-57.584 137.672-57.584 224.609 0 83.026 19.201 160.804 57.584 233.378 38.383 72.549 92.45 128.261 162.189 167.115 69.757 38.853 146.787 58.282 231.15 58.282 73.885 0 141.375-15.444 202.47-46.304 61.097-30.873 107.037-72.039 137.862-123.478 30.824-51.449 46.226-106.799 46.226-166.064 0-50.734-11.989-99.97-35.951-147.688-23.98-47.72-56.5-85.776-97.581-114.163-31.008-21.644-56.050-32.459-75.17-32.459-10.459 0-19.366 3.45-26.76 10.378-7.394 6.915-11.070 15.164-11.070 24.743 0 5.316 5.394 32.81 16.219 82.493l77.845 357.123h-96.781l-18.384-82.493c-20.53 32.992-45.041 57.566-73.517 73.711s-58.399 24.223-89.755 24.223c-41.079 0-83.446-14.194-127.055-42.584-43.612-28.388-80.114-70.878-109.489-127.463-29.372-56.598-44.061-113.098-44.061-169.514 0-45.769 9.458-87.819 28.394-126.142 18.915-38.321 43.507-66.71 73.801-85.157 30.273-18.445 61.444-27.675 93.535-27.675 29.19 0 58.299 8.067 87.305 24.225 29.006 16.133 55.233 37.522 78.664 64.132 2.165-21.644 5.599-36.904 10.276-45.769 7.212-13.845 18.465-24.49 33.786-31.94s35.42-11.18 60.301-11.18c77.845 0 149.567 35.84 215.176 107.516 73.538 79.828 110.285 171.186 110.285 274.098 0 72.016-17.483 138.727-52.435 200.108-41.1 71.327-97.232 124.98-168.421 161-71.189 36.009-151.466 54.019-240.855 54.019-115.35 0-213.481-25.544-294.392-76.629-80.929-51.1-143.375-124.727-187.336-220.881-36.053-78.422-54.069-160.914-54.069-247.488 0-77.694 15.136-150.085 45.407-217.136 24.146-52.868 60.015-99.616 107.591-140.252 47.593-40.624 105.156-71.047 172.749-91.274 67.574-20.227 141.377-30.34 221.408-30.34 86.856 0 161.107 11.277 222.735 33.805 61.649 22.538 114.801 53.133 159.493 91.805 44.694 38.674 76.232 76.643 94.618 113.898h-97.846c-31.723-44.705-79.479-82.674-143.272-113.898zM599.59 402.503c-12.971-36.022-29.66-65.73-50.005-89.155-20.365-23.412-41.733-41.071-64.079-52.951-22.346-11.895-43.612-17.828-63.793-17.828-30.271 0-57.133 13.479-80.562 40.44-23.431 26.96-35.136 64.748-35.136 113.365 0 30.521 5.759 64.048 17.301 100.601 11.521 36.538 26.841 67.594 45.961 93.136 19.099 25.546 38.833 44.088 59.198 55.618s42.080 17.295 65.141 17.295c34.971 0 64.61-13.31 88.94-39.919 24.327-26.609 36.502-64.044 36.502-112.299-0.002-36.189-6.495-72.292-19.469-108.302z" />
<glyph unicode="&#xe946;" glyph-name="map" d="M1016.381 919.337c-4.905 3.512-11.141 4.495-16.804 2.56l-330.179-110.070-311.429 73.288c-0.788 0.184-1.546-0.072-2.324 0-1.997 0.205-3.994 0.461-5.98 0.031l-335.196-74.476c-8.509-1.905-14.582-9.452-14.582-18.176v-800.778c0-5.663 2.57-10.977 6.984-14.51 3.338-2.693 7.455-4.086 11.643-4.086 1.341 0 2.703 0.154 4.045 0.42l331.612 73.667 312.883-55.204c1.075-0.205 2.161-0.287 3.256-0.287 2.222 0 4.465 0.43 6.543 1.239 0.061 0 0.123 0 0.184 0.020l335.186 130.376c7.178 2.796 11.899 9.687 11.899 17.357v763.515c0 6.001-2.888 11.602-7.741 15.114zM37.14 777.574l297.953 66.202v-762.593l-297.953-66.253v762.644zM372.326 843.479l279.337-65.72v-745.185l-279.337 49.265v761.641zM986.86 153.436l-297.964-115.855v741.509l297.964 99.308v-724.961z" />
<glyph unicode="&#xe947;" glyph-name="picture" d="M299.332 480.982c54.44 0 98.694 44.289 98.694 98.694 0 54.44-44.289 98.73-98.694 98.73s-98.694-44.289-98.694-98.694c0-54.44 44.253-98.73 98.694-98.73zM299.332 642.967c34.897 0 63.255-28.394 63.255-63.255s-28.358-63.255-63.255-63.255-63.255 28.358-63.255 63.219c0 34.861 28.358 63.291 63.255 63.291zM68.927 908.811v-921.586h886.183v921.586h-886.183zM919.635 22.628h-815.27v141.791h815.27v-141.791zM919.635 199.857h-732.868l253.887 223.506 182.576-182.576c6.936-6.936 18.135-6.936 25.071 0s6.936 18.135 0 25.071l-85.183 85.183 162.707 178.205 193.847-177.663v-151.725zM919.635 399.665l-182.973 167.728c-3.468 3.179-8.056 4.732-12.752 4.66-4.696-0.217-9.14-2.276-12.283-5.744l-173.581-190.126-84.063 84.063c-6.611 6.611-17.232 6.936-24.24 0.795l-296.586-261.148h-28.756v673.443h815.27v-473.671z" />
<glyph unicode="&#xe948;" glyph-name="unterkunft" d="M767.999 857.568v102.432h-512v-102.392h-153.567v-921.608h307.216v102.392h204.784v-102.392h307.216v921.568h-153.649zM460.825 192.001h-102.392v102.392h102.392v-102.392zM460.825 396.783h-102.392v102.392h102.392v-102.392zM460.825 601.607h-102.392v102.392h102.392v-102.392zM665.607 192.001h-102.392v102.392h102.392v-102.392zM665.607 396.783h-102.392v102.392h102.392v-102.392zM665.607 601.607h-102.392v102.392h102.392v-102.392z" />
<glyph unicode="&#xe949;" glyph-name="restaurant" d="M152.885 960c-84.424 0-152.885-68.461-152.885-152.885v-718.363c0-84.393 68.492-152.885 152.885-152.885h718.363c84.424 0 152.885 68.492 152.885 152.885v718.363c0 84.424-68.43 152.885-152.885 152.885h-718.363zM371.432 864.937c2.297 0.409 3.92 0 3.92 0 47.512 0 71.926-58.645 84.283-109.764 8.624-35.563 12.74-72.217 12.74-108.784v-227.367h-121.524v414.553c0 24.297 13.69 30.134 20.581 31.361zM542.938 851.216h3.92c4.14 0 8.201-2.399 9.8-5.88v-1.96c0.314-0.627 0-1.333 0-1.96v-202.867c0.314-0.314 0-0.666 0-0.98 0.488-4.858 5.056-8.82 9.8-8.82h2.94c5.018 0 9.8 4.469 9.8 9.8v204.827c0.627 3.45 3.442 6.899 6.86 7.84 0.972 0.627 2.031 0 2.94 0h3.92c5.363 0 8.82-4.469 8.82-9.8v-200.907c0-0.627-0.314-1.333 0-1.96v-0.98c0-0.314 0.604-0.666 0.98-0.98 0.314-5.049 3.771-8.82 8.82-8.82h4.9c5.614 0 9.8 4.469 9.8 9.8v205.807c0.627 3.45 3.442 7.213 6.86 7.84 0.909 0.627 1.051 0 1.96 0h3.92c0.063-0.063 0.855 0 0.98 0 0.314 0 0.666 0.314 0.98 0 0.314 0 0.604 0.314 0.98 0 0.282-0.063 0.666-0.886 0.98-0.98 0.502-0.188 0.541-0.666 0.98-0.98 0.564-0.345 1.521-0.541 1.96-0.98 0.314-0.627 1.646-0.353 1.96-0.98 0.596-0.627 0.98-1.999 0.98-2.94v-1.96c0.314-0.314 0-0.666 0-0.98v-202.867c0-5.363 4.469-9.8 9.8-9.8h3.92c4.986 0 9.487 4.116 9.8 8.82v203.847c0 0.627-0.314 1.333 0 1.96 0.972 4.391 5.065 7.84 9.8 7.84h4.9c4.673 0 8.852-4.116 8.82-8.82v-254.808c0 0-0.525-19.052-30.381-21.561v-147.005h-96.043v147.005c-35.563 0-35.281 20.933-35.281 21.561v254.808c0 4.704 4.116 8.82 8.82 8.82zM350.851 396.482h95.063v-311.65c0-26.281-20.761-48.022-47.042-48.022-26.343 0-48.022 21.741-48.022 48.022v311.65zM569.399 396.482h95.063v-311.65c0-26.281-21.741-48.022-48.022-48.022-26.343 0-47.042 21.741-47.042 48.022v311.65z" />
<glyph unicode="&#xe94a;" glyph-name="gastronomy" d="M347.515 434.835c0.682 10.958 1.364 21.955 2.77 33.074 2.649 26.33 8.349 52.741 14.169 78.429 3.532 12.804 7.385 25.488 11.44 37.85 5.138 12.082 10.195 24.083 15.253 35.844 11.4 22.918 24.123 44.312 39.336 62.254 3.612 4.615 7.184 9.111 10.676 13.566 4.014 4.014 7.988 7.908 11.841 11.761 8.148 7.385 15.212 15.373 23.321 21.193 16.216 12.001 30.545 23.441 45.116 30.505 14.049 7.868 26.129 14.691 37.006 18.544 21.313 8.59 33.395 12.924 33.395 12.924s-10.315-8.189-28.337-21.514c-9.312-6.101-19.186-15.694-30.946-25.528-12.242-9.392-23.361-22.837-36.526-35.762-6.583-6.583-11.722-14.851-17.941-22.477-3.051-3.893-6.141-7.786-9.352-11.761-2.609-4.375-5.299-8.79-7.988-13.285-11.64-17.3-20.35-37.569-29.422-58.16-3.733-10.758-7.465-21.675-11.319-32.713-2.609-11.48-5.539-23.079-8.71-34.639-4.777-23.722-9.432-47.964-11.44-72.85-1.404-9.031-2.088-18.143-2.93-27.294 197.519-0.040 350.404-0.161 564.3-0.161 0.722 9.392 1.124 18.905 1.124 28.458 0 180.46-131.291 329.091-300.232 348.758 10.918 10.235 17.822 24.725 17.822 40.82 0.080 30.987-25.006 56.073-55.872 56.073-30.906 0-55.992-25.086-55.992-56.073 0-16.135 6.863-30.625 17.822-40.82-168.94-19.707-300.152-168.298-300.152-348.758 0-9.513 0.361-18.905 1.043-28.297 20.832 0.040 40.98 0.040 60.729 0.040zM224.13 413.963h799.87v-70.683h-799.87v70.683zM695.631 293.108c-40.66-19.788-182.387-71.004-182.387-71.004l-167.576 10.516c0 0 95.85 26.692 133.017 35.040 37.208 8.309 21.033 50.373 0.441 50.373s-199.887-7.425-199.887-7.425l-119.089-42.948 31.508-199.806c0 0 24.524 42.025 48.969 42.025 24.565 0 237.135-5.66 265.995 0 28.859 5.74 204.744 126.234 225.816 140.322 20.992 14.009 4.014 62.696-36.807 42.908zM0 246.186v-259.010l182.467 34.238-45.677 248.895z" />
<glyph unicode="&#xe94b;" glyph-name="activity" d="M629.167 779.553c29.784 13.286 63.581 20.671 96.937 20.671 19.307 0 37.772-2.328 55.192-6.743 6.905-1.686 13.648 4.215 12.604 11.4l-2.529 20.23c-2.088 33.757-40.501 60.932-86.42 60.932-47.204 0-92.321-28.459-92.321-63.661l2.088-33.757c0.602-7.386 7.948-12.001 14.45-9.071zM1022.334 199.496l-1.043 6.101c0 0.441-0.201 0.843-0.201 1.284l-38.815 198.209c-5.018 45.76-38.173 85.618-86.42 110.263l-18.465 144.021c0 61.132-68.799 111.106-151.246 111.106s-160.919-49.532-160.919-110.905c0-2.97 0.201-6.101 0.642-9.071l1.043-15.615c-16.377 5.9-35.042 9.272-54.751 9.272-19.949 0-38.614-3.372-55.192-9.473l1.043 15.815c0.401 2.97 0.642 5.9 0.642 9.071 0 61.132-78.673 110.905-160.919 110.905-82.447 0-151.246-49.974-151.246-111.106l-18.465-144.021c-48.247-24.445-81.403-64.504-86.42-110.263l-38.815-198.209c0-0.441-0.201-0.843-0.201-1.284l-1.043-6.101c-0.843-6.342-1.486-12.644-1.486-19.187 0-94.047 97.98-170.393 218.6-170.393s218.6 76.346 218.6 170.393v78.031c21.595-10.116 47.405-15.815 74.9-15.815s53.064 5.7 74.7 15.615v-77.79c0-94.047 97.98-170.393 218.6-170.393 120.418 0 218.6 76.346 218.6 170.393-0.241 6.502-0.883 12.805-1.726 19.147zM218.62 71.291c-85.377 0-157.548 49.974-157.548 109.019 0 59.246 72.171 109.019 157.548 109.019s157.548-49.974 157.548-109.019c0-59.045-72.171-109.019-157.548-109.019zM512.12 296.473c-35.885 0-65.027 20.471-65.027 45.558s29.182 45.558 65.027 45.558c35.885 0 65.027-20.471 65.027-45.558s-29.142-45.558-65.027-45.558zM805.219 71.291c-85.377 0-157.548 49.974-157.548 109.019 0 59.246 72.171 109.019 157.548 109.019s157.548-49.974 157.548-109.019c0-59.045-72.171-109.019-157.548-109.019zM242.303 793.481c17.42 4.416 36.085 6.743 55.192 6.743 33.356 0 67.354-7.386 96.937-20.671 6.502-2.97 13.848 1.686 14.249 8.871l2.088 33.717c0 35.203-45.117 63.661-92.321 63.661-45.96 0-84.132-27.215-86.42-60.932l-2.529-20.23c-0.843-6.945 5.7-13.046 12.805-11.159z" />
<glyph unicode="&#xe94c;" glyph-name="amusementPark" d="M826.063 567.738c-8.669 56.708-32.508 109.805-69.35 153.871h58.514c7.946 0 14.448 6.502 14.448 14.448v28.896c0 31.786-26.006 57.431-57.792 57.431s-57.792-25.645-57.792-57.431v-0.722c-41.538 34.314-91.383 57.431-144.48 67.183v19.505c0 31.786-26.006 57.431-57.792 57.431s-57.792-25.645-57.792-57.431v-19.505c-53.096-9.752-102.942-32.869-144.48-67.183v0.722c0 31.786-26.006 57.431-57.792 57.431s-57.792-25.645-57.792-57.431v-28.896c0-7.946 6.502-14.448 14.448-14.448h58.514c-36.842-44.066-60.681-97.163-69.35-153.871-37.926 25.645-90.3-1.084-90.3-47.678v-28.896c0-7.946 6.502-14.448 14.448-14.448h75.129c7.224-52.013 27.451-101.858 58.875-144.119-31.786 2.167-59.237-22.033-61.404-53.457 0-1.445 0-2.528 0-3.973v-28.896c0-7.946 6.502-14.448 14.448-14.448h86.688c7.946 0 14.448 6.502 14.448 14.448 0 12.642 0 26.729 0 29.257 25.284-20.588 53.457-37.565 83.437-49.484l-41.177-109.443h-13.364c-7.946 0-14.448-6.502-14.448-14.448s6.502-14.448 14.448-14.448h2.528l-27.090-71.517h-47.678c-7.946 0-14.448-6.502-14.448-14.448s6.502-14.448 14.448-14.448h491.231c7.946 0 14.448 6.502 14.448 14.448s-6.502 14.448-14.448 14.448h-47.678l-27.090 71.879h2.528c7.946 0 14.448 6.502 14.448 14.448s-6.502 14.448-14.448 14.448h-13.726l-41.177 109.443c30.341 12.281 58.514 28.896 83.437 49.484 0-2.528 0-20.227 0-29.257 0-7.946 6.502-14.448 14.448-14.448h86.688c7.946 0 14.448 6.502 14.448 14.448v28.896c0 31.786-26.006 57.431-57.792 57.431-1.445 0-2.528 0-3.973 0 31.424 42.26 51.651 92.106 58.875 144.119h75.129c7.946 0 14.448 6.502 14.448 14.448v28.896c0 45.872-52.374 72.962-90.3 47.317zM656.66 400.863c24.923 29.618 39.732 66.461 42.622 105.109h101.136c-3.251-64.655-28.174-126.42-71.156-175.182l-72.601 70.073zM476.422 365.827l31.063 82.715c2.89-0.361 5.779-0.361 8.669 0l31.063-82.715c-23.117-5.418-47.317-5.418-70.795 0v0zM557.692 338.376l35.759-94.634c-53.096-15.532-109.443-15.532-162.54 0l35.759 94.634c29.618-7.224 61.043-7.224 91.022 0v0zM294.739 330.43c-42.983 48.762-67.905 110.527-71.156 175.182h101.136c2.89-38.648 17.699-75.129 42.622-105.109l-72.601-70.073zM699.282 534.507c-2.89 38.648-17.699 75.129-42.622 105.109l72.601 70.073c42.983-48.762 67.905-110.527 71.156-175.182h-101.136zM582.614 534.507c-1.806 8.669-5.057 16.976-9.752 24.2l62.849 60.681c19.505-24.2 31.786-53.819 34.675-84.882h-87.771zM353.614 534.507c2.89 31.063 14.809 60.681 34.675 84.882l62.849-60.681c-4.696-7.585-8.308-15.532-9.752-24.2h-87.771zM552.635 579.296c-7.946 5.418-16.976 9.391-26.368 11.197v87.41c32.869-2.89 64.293-16.254 89.216-37.926l-62.849-60.681zM497.371 590.493c-9.391-1.806-18.421-5.779-26.368-11.197l-62.849 60.681c24.923 21.672 56.347 34.675 89.216 37.926v-87.41zM468.475 520.059c0 23.839 19.505 43.344 43.344 43.344s43.344-19.505 43.344-43.344-19.505-43.344-43.344-43.344c-23.839 0-43.344 19.505-43.344 43.344zM636.433 660.205c-30.702 27.090-69.35 43.344-110.166 46.595v101.136c68.267-3.251 132.921-30.702 182.767-77.297l-72.601-70.434zM497.371 807.574v-101.136c-40.816-3.251-79.464-19.505-110.166-46.595l-72.601 70.434c49.846 46.595 114.5 74.046 182.767 77.297zM294.739 709.689l72.601-70.073c-24.923-29.618-39.732-66.461-42.622-105.109h-101.136c2.89 64.655 28.174 126.42 71.156 175.182zM353.614 505.611h87.41c1.806-8.669 5.057-16.976 9.752-24.2l-62.849-60.681c-19.505 24.2-31.424 53.819-34.314 84.882zM471.004 460.823c2.528-1.806 5.418-3.612 8.308-5.057l-30.341-81.27c-14.809 6.502-28.535 14.809-40.816 25.645l62.849 60.681zM544.327 455.766c2.89 1.445 5.779 3.251 8.308 5.057l62.849-60.681c-12.281-10.475-26.006-19.144-40.816-25.645l-30.341 81.27zM572.862 481.411c4.696 7.585 8.308 15.532 9.752 24.2h87.41c-2.89-31.063-14.809-60.681-34.675-84.882l-62.487 60.681zM314.605 309.841l72.601 70.073c15.17-13.364 32.508-24.562 51.29-32.508l-35.398-94.273c-32.508 13.364-62.487 32.508-88.494 56.708zM678.693 16.186h-333.748l27.090 71.879h279.568l27.090-71.879zM641.129 116.961h-258.257l37.565 99.691c59.598-17.699 123.169-17.699 182.767 0l37.926-99.691zM585.143 347.767c18.782 7.946 36.12 18.782 51.29 32.508l72.601-70.073c-26.006-24.2-55.986-43.344-88.494-56.708l-35.398 94.273z" />
<glyph unicode="&#xe94d;" glyph-name="animalPark" d="M584.059 402.669c-10.114 0-18.060-7.946-18.060-18.060 0-9.752 7.946-18.060 18.060-18.060s18.060 7.946 18.060 18.060c-0.361 10.114-8.308 18.060-18.060 18.060zM744.432 306.229c-16.976 16.615-57.792 62.126-89.939 135.811-23.839 57.431-79.825 94.273-142.313 94.273s-118.112-36.842-142.313-94.273c-40.454-92.467-95.718-141.229-96.44-141.59 0 0 0 0-0.361 0-32.508-28.896-51.29-70.795-51.29-114.139 0-53.096 25.645-99.33 69.711-128.587 41.177-27.451 92.106-35.398 140.145-22.394 23.839 6.502 51.651 10.114 80.186 10.114 28.896 0 57.069-3.612 81.27-10.475 46.234-13.003 97.163-5.779 139.423 21.672 44.789 29.257 70.434 76.213 70.434 129.671 0.361 46.956-20.95 90.661-58.514 119.918zM712.646 86.259c-32.508-21.311-72.601-27.451-109.805-17.338-27.451 7.585-58.875 11.558-91.022 11.558-31.786 0-62.849-3.973-89.577-11.197-37.565-10.114-78.019-3.973-110.527 17.699-33.953 22.394-53.819 57.792-53.819 98.969 0 33.23 14.448 65.016 39.371 87.41 3.973 3.251 62.126 55.263 105.831 154.232 0 0 0 0.361 0 0.361 18.421 44.066 61.043 72.24 109.082 72.24s90.661-28.535 109.082-72.24c0 0 0-0.361 0-0.361 35.398-80.547 80.547-130.032 98.607-147.731 0.361-0.361 1.084-1.084 1.806-1.445 28.896-22.394 45.872-56.347 45.872-92.828-0.361-41.177-20.227-76.935-54.902-99.33zM632.821 331.513c-5.418 8.308-16.615 10.475-24.923 5.057s-10.836-16.615-5.418-24.923c27.451-41.899 53.457-69.711 66.461-82.353 7.224-6.863 18.421-6.863 25.284 0s6.863 18.421 0 25.284c-11.558 11.92-35.759 37.926-61.404 76.935zM453.666 623.362c17.338 29.98 24.562 70.073 19.866 109.443-9.030 76.935-62.487 141.59-122.085 134.366-27.090-3.251-50.929-20.588-67.544-49.484-17.338-29.98-24.562-70.073-19.866-109.443 14.809-125.697 132.56-183.85 189.63-84.882zM314.966 799.989c9.752 16.976 25.284 32.147 45.15 32.147 35.398 0 70.795-47.317 77.658-103.303 3.973-32.147-1.806-63.932-15.17-87.41-41.538-71.879-112.694-11.197-122.808 71.156-3.973 32.147 1.806 63.932 15.17 87.41zM281.374 431.204c5.057 31.786-1.084 67.183-17.699 99.33-16.976 32.147-42.26 57.431-71.517 71.879-31.063 15.17-62.849 15.893-89.216 2.167-26.729-13.726-44.428-39.732-49.846-73.685-5.057-31.786 1.084-67.183 17.699-99.33s41.899-57.792 71.156-71.879c28.896-14.087 61.043-16.615 89.216-2.167 26.729 13.364 44.428 39.732 50.207 73.685zM214.914 388.944c-16.254-8.308-36.481-7.585-57.069 2.528-22.394 10.836-41.899 30.702-54.902 56.347-13.364 25.284-18.421 52.735-14.448 77.297 3.612 22.394 14.448 39.371 30.702 47.678 0 0 0 0 0 0 18.060 9.391 38.648 6.502 57.069-2.528 22.394-10.836 41.899-30.702 54.902-56.347 13.364-25.284 18.421-52.735 14.448-77.297-3.612-22.394-14.448-39.010-30.702-47.678zM646.908 573.156c54.541 0 104.387 59.237 113.417 134.727 9.752 80.547-31.063 159.65-96.079 159.65-54.541 0-104.387-59.237-113.417-134.727-9.391-80.909 31.424-159.65 96.079-159.65zM586.588 728.471c6.502 55.986 42.26 103.303 77.658 103.303 1.806 0 3.251 0 4.334-0.361 19.144-2.167 33.953-18.782 42.622-35.759 11.92-23.117 16.615-53.457 13.003-83.437-6.863-58.153-45.511-107.637-81.992-102.942 0 0 0 0-0.361 0-16.254 1.806-31.786 14.809-42.622 35.759-11.558 23.117-16.254 53.457-12.642 83.437zM970.904 530.534c-11.558 69.711-74.768 102.942-139.423 71.517-60.32-29.257-99.691-105.109-88.855-171.208 11.558-70.434 75.491-102.581 139.423-71.517 60.32 29.618 99.691 105.47 88.855 171.208zM866.156 391.472c-20.588-10.114-40.816-10.836-57.069-2.528v0c-16.254 8.308-27.090 25.284-30.702 47.678-8.308 50.207 23.117 110.888 69.35 133.283 42.26 20.588 80.186 1.084 87.771-45.15 7.946-50.207-23.117-110.527-69.35-133.283z" />
<glyph unicode="&#xe94e;" glyph-name="waterPark" d="M375.286 764.591h53.819c0 59.598-48.401 108.36-107.999 108.36-32.147 0-61.043-14.087-80.909-36.842-19.866 22.756-48.762 36.842-80.909 36.842-59.598 0-107.999-48.762-107.999-108.36h0.361v-741.542h53.096v49.123h108.36v-49.123h54.18v741.542c0 29.98 24.2 54.18 53.819 54.18s54.18-24.2 54.18-54.18zM159.289 818.771c25.645 0 47.317-18.060 52.735-42.26h-105.47c5.418 24.2 26.729 42.26 52.735 42.26zM213.108 126.713h-108.36v54.18h108.36v-54.18zM213.108 234.712h-108.36v54.18h108.36v-54.18zM213.108 343.072h-108.36v54.18h108.36v-54.18zM213.108 451.431h-108.36v54.18h108.36v-54.18zM213.108 559.791h-108.36v54.18h108.36v-54.18zM213.108 668.151h-108.36v54.18h108.36v-54.18zM971.987 157.415c-33.953 33.953-89.216 33.953-123.169 0l-0.722-0.722c-33.953-33.953-89.216-33.953-123.169 0l-0.722 0.722c-33.953 33.953-89.216 33.953-123.169 0l-0.722-0.722c-33.953-33.953-89.216-33.953-123.169 0l-0.722 0.722c-33.953 33.953-89.216 33.953-123.169 0l-0.722-0.722c-9.391-9.391-20.588-16.254-32.508-20.588v-113.417h651.604v134.005l0.361 0.722zM436.69 559.069l52.374-283.18c7.946-37.204 29.618-68.628 59.237-89.216 5.418 1.445 10.475 4.334 14.809 8.669l0.722 0.722c26.729 26.729 62.126 41.538 99.691 41.538 34.314 0 66.822-12.281 92.467-34.675v66.822h-110.888c-25.645 0-47.678 18.060-52.735 42.983l-55.625 297.628c-12.281 58.514-63.571 100.413-123.169 100.413h-92.467v-108.36h62.487c25.645-0.361 47.678-18.060 53.096-43.344v0z" />
</font>
</defs>
</svg>
